tja
This commit is contained in:
570
tja/1363.tja
Normal file
570
tja/1363.tja
Normal file
@@ -0,0 +1,570 @@
|
||||
//TJADB Project
|
||||
TITLE:GAME CHANGER
|
||||
TITLEJA:GAME CHANGER
|
||||
SUBTITLE:--Aqua☆Magic [Shimane Susanoo Magic] Support Song
|
||||
SUBTITLEJA:アクア☆マジック 「島根スサノオマジック」応援ソング
|
||||
BPM:208
|
||||
WAVE:GAME CHANGER.ogg
|
||||
OFFSET:-1.882
|
||||
DEMOSTART:20.343
|
||||
|
||||
//shinuchi: 7720/4630/2380/1610
|
||||
|
||||
COURSE:Oni
|
||||
LEVEL:7
|
||||
BALLOON:15,15
|
||||
SCOREINIT:520,1660
|
||||
SCOREDIFF:130
|
||||
|
||||
#START
|
||||
11211211,
|
||||
20102002,
|
||||
11211211,
|
||||
2120,
|
||||
|
||||
21211211,
|
||||
20102002,
|
||||
11211211,
|
||||
20021120, //8
|
||||
|
||||
21211211,
|
||||
20102002,
|
||||
11211211,
|
||||
2112,
|
||||
|
||||
10112010,
|
||||
20112010,
|
||||
12012011,
|
||||
22111122, //16
|
||||
|
||||
10201120,
|
||||
1011102010201020,
|
||||
10201120,
|
||||
1011102010201020,
|
||||
|
||||
10201120,
|
||||
1011102010201020,
|
||||
10201122,
|
||||
2022202000202000, //24
|
||||
|
||||
10201120,
|
||||
1011102010201020,
|
||||
10201120,
|
||||
1011102010201020,
|
||||
|
||||
10201120,
|
||||
1011102010201020,
|
||||
10201122,
|
||||
2022202022202000, //32
|
||||
|
||||
10120210,
|
||||
40121021,
|
||||
0700,
|
||||
00801121,
|
||||
|
||||
00121120,
|
||||
20001202,
|
||||
00112121,
|
||||
10011121, //40
|
||||
|
||||
10121110,
|
||||
10121211,
|
||||
1700,
|
||||
00801121,
|
||||
|
||||
10121120,
|
||||
10201122,
|
||||
10201120,
|
||||
12221222, //48
|
||||
|
||||
10201122,
|
||||
10210122,
|
||||
10201122,
|
||||
10210122,
|
||||
|
||||
10201122,
|
||||
10210122,
|
||||
10201120,
|
||||
10221022, //56
|
||||
|
||||
10211120,
|
||||
10211120,
|
||||
10211120,
|
||||
11221122,
|
||||
|
||||
10211120,
|
||||
10201122, //62
|
||||
|
||||
12,
|
||||
10002012,
|
||||
00000112,
|
||||
0022202020202000,
|
||||
|
||||
10112100,
|
||||
11014010,
|
||||
00112110,
|
||||
12114010, //70
|
||||
|
||||
10112101,
|
||||
01014010,
|
||||
01102121,
|
||||
01221200,
|
||||
|
||||
12112100,
|
||||
11014010,
|
||||
00112112,
|
||||
12114010,
|
||||
|
||||
10112101,
|
||||
01114050,
|
||||
000000000000000000000000000000000008000000000000,
|
||||
01221200, //82
|
||||
|
||||
#GOGOSTART
|
||||
1110201010102000,
|
||||
1110201000102010,
|
||||
1110201010102000,
|
||||
1110201000102010,
|
||||
|
||||
1110201010102000,
|
||||
1110201000102010,
|
||||
1110201011102000,
|
||||
01221200, //90
|
||||
|
||||
1110201010202010,
|
||||
1110201000102010,
|
||||
1110201010202010,
|
||||
1110201000102010,
|
||||
|
||||
1110201010202010,
|
||||
1110201000102010,
|
||||
1110201011102010,
|
||||
0011102010200000, //98
|
||||
|
||||
0011102010200000,
|
||||
#GOGOEND
|
||||
0,
|
||||
0,
|
||||
0,
|
||||
0, //103
|
||||
#END
|
||||
|
||||
|
||||
COURSE:Hard
|
||||
LEVEL:4
|
||||
BALLOON:12,12
|
||||
SCOREINIT:540,2450
|
||||
SCOREDIFF:140
|
||||
|
||||
#START
|
||||
1,
|
||||
00001001,
|
||||
02,
|
||||
21,
|
||||
|
||||
12,
|
||||
20001001,
|
||||
02,
|
||||
20020220, //8
|
||||
|
||||
12,
|
||||
20001001,
|
||||
00001100,
|
||||
1111,
|
||||
|
||||
2121,
|
||||
2121,
|
||||
11001011,
|
||||
01011122, //16
|
||||
|
||||
0112,
|
||||
10201011,
|
||||
0112,
|
||||
10201011,
|
||||
|
||||
0112,
|
||||
10201011,
|
||||
00000022,
|
||||
20220020, //24
|
||||
|
||||
0112,
|
||||
10201011,
|
||||
0112,
|
||||
10201011,
|
||||
|
||||
0112,
|
||||
10201011,
|
||||
00000022,
|
||||
20220020, //32
|
||||
|
||||
00110110,
|
||||
40001011,
|
||||
0700,
|
||||
00801102,
|
||||
|
||||
0112,
|
||||
20001102,
|
||||
0122,
|
||||
10011000, //40
|
||||
|
||||
10201120,
|
||||
10201120,
|
||||
1700,
|
||||
00801120,
|
||||
|
||||
10201120,
|
||||
10201120,
|
||||
10201120,
|
||||
10221020, //48
|
||||
|
||||
10201120,
|
||||
10210120,
|
||||
10201120,
|
||||
10210120,
|
||||
|
||||
10201120,
|
||||
10210120,
|
||||
1122,
|
||||
10221020, //56
|
||||
|
||||
10101120,
|
||||
10101120,
|
||||
10101120,
|
||||
10111120,
|
||||
|
||||
10101120,
|
||||
11, //62
|
||||
|
||||
11,
|
||||
10001012,
|
||||
00000112,
|
||||
02220220,
|
||||
|
||||
10112100,
|
||||
10014010,
|
||||
00112010,
|
||||
12104010, //70
|
||||
|
||||
10112100,
|
||||
12104010,
|
||||
01102101,
|
||||
01121100,
|
||||
|
||||
10112010,
|
||||
10014010,
|
||||
00112010,
|
||||
12104010,
|
||||
|
||||
10112100,
|
||||
01104050,
|
||||
000000000000000000000000000000000008000000000000,
|
||||
01121100, //82
|
||||
|
||||
#GOGOSTART
|
||||
11201020,
|
||||
11210120,
|
||||
11201020,
|
||||
11210120,
|
||||
|
||||
11201020,
|
||||
11210120,
|
||||
11201120,
|
||||
01121100, //90
|
||||
|
||||
11201020,
|
||||
11210120,
|
||||
11201020,
|
||||
11210120,
|
||||
|
||||
11201020,
|
||||
11210120,
|
||||
11201120,
|
||||
01121200, //98
|
||||
|
||||
01121200,
|
||||
#GOGOEND
|
||||
0,
|
||||
0,
|
||||
0,
|
||||
0, //103
|
||||
#END
|
||||
|
||||
|
||||
COURSE:Normal
|
||||
LEVEL:4
|
||||
BALLOON:7,7
|
||||
SCOREINIT:830,5090
|
||||
SCOREDIFF:273
|
||||
|
||||
#START
|
||||
1,
|
||||
00001001,
|
||||
0,
|
||||
01,
|
||||
|
||||
1,
|
||||
00001001,
|
||||
0,
|
||||
20020020, //8
|
||||
|
||||
1,
|
||||
00001001,
|
||||
0,
|
||||
0001,
|
||||
|
||||
22,
|
||||
2025,
|
||||
000000000000000000000008000000000000600000000000,
|
||||
000000000000000000000008000000000000000000000000, //16
|
||||
|
||||
0101,
|
||||
00100011,
|
||||
0101,
|
||||
00100011,
|
||||
|
||||
0101,
|
||||
00100011,
|
||||
0002,
|
||||
4, //24
|
||||
|
||||
0101,
|
||||
00101011,
|
||||
0101,
|
||||
00101011,
|
||||
|
||||
0101,
|
||||
00101011,
|
||||
0002,
|
||||
4, //32
|
||||
|
||||
3001,
|
||||
10001001,
|
||||
0700,
|
||||
00801002,
|
||||
|
||||
0002,
|
||||
20001001,
|
||||
0301,
|
||||
11, //40
|
||||
|
||||
0101,
|
||||
0101,
|
||||
0700,
|
||||
0801,
|
||||
|
||||
0101,
|
||||
0101,
|
||||
0101,
|
||||
22, //48
|
||||
|
||||
2011,
|
||||
10010020,
|
||||
0011,
|
||||
10010020,
|
||||
|
||||
0011,
|
||||
10010010,
|
||||
1110,
|
||||
22, //56
|
||||
|
||||
10010020,
|
||||
10010020,
|
||||
10010020,
|
||||
1,
|
||||
|
||||
10010020,
|
||||
11, //62
|
||||
|
||||
5,
|
||||
000000000000000000000008000000000000000000300000,
|
||||
00000006,
|
||||
000000000000000000000000000000000008000000000000,
|
||||
|
||||
11,
|
||||
2041,
|
||||
0110,
|
||||
24, //70
|
||||
|
||||
11,
|
||||
1045,
|
||||
000000000000000000000000000000000008000000000000,
|
||||
01011100,
|
||||
|
||||
11,
|
||||
2041,
|
||||
0110,
|
||||
24,
|
||||
|
||||
1011,
|
||||
1045,
|
||||
000000000000000000000000000000000008000000000000,
|
||||
01011100, //82
|
||||
|
||||
#GOGOSTART
|
||||
11,
|
||||
20020010,
|
||||
0110,
|
||||
20020000,
|
||||
|
||||
1011,
|
||||
10010050,
|
||||
000000000000000000000000000000000008000000000000,
|
||||
01101100, //90
|
||||
|
||||
11,
|
||||
20020010,
|
||||
0110,
|
||||
20020000,
|
||||
|
||||
1011,
|
||||
10010050,
|
||||
000000000000000000000000000000000008000000000000,
|
||||
01101100, //98
|
||||
|
||||
03303300,
|
||||
#GOGOEND
|
||||
0,
|
||||
0,
|
||||
0,
|
||||
0, //103
|
||||
#END
|
||||
|
||||
|
||||
COURSE:Easy
|
||||
LEVEL:3
|
||||
BALLOON:5,5
|
||||
SCOREINIT:870,9640
|
||||
SCOREDIFF:458
|
||||
|
||||
#START
|
||||
1,
|
||||
00000001,
|
||||
0,
|
||||
0,
|
||||
|
||||
1,
|
||||
00000001,
|
||||
0,
|
||||
2, //8
|
||||
|
||||
1,
|
||||
00000001,
|
||||
0,
|
||||
0,
|
||||
|
||||
11,
|
||||
1015,
|
||||
000000000000000000000008000000000000600000000000,
|
||||
000000000000000000000008000000000000000000000000, //16
|
||||
|
||||
0101,
|
||||
0101,
|
||||
0101,
|
||||
0101,
|
||||
|
||||
0101,
|
||||
0101,
|
||||
0,
|
||||
4, //24
|
||||
|
||||
0101,
|
||||
0101,
|
||||
0101,
|
||||
0101,
|
||||
|
||||
0101,
|
||||
0101,
|
||||
0,
|
||||
4, //32
|
||||
|
||||
3,
|
||||
2,
|
||||
0700,
|
||||
00800003,
|
||||
|
||||
0,
|
||||
2,
|
||||
0300,
|
||||
0, //40
|
||||
|
||||
0101,
|
||||
0101,
|
||||
0700,
|
||||
0800,
|
||||
|
||||
0101,
|
||||
0101,
|
||||
0101,
|
||||
500000000000000000000000000000000000000000000008, //48
|
||||
|
||||
01,
|
||||
1,
|
||||
01,
|
||||
1,
|
||||
|
||||
01,
|
||||
1,
|
||||
1,
|
||||
2, //56
|
||||
|
||||
1,
|
||||
1,
|
||||
1,
|
||||
1,
|
||||
|
||||
2,
|
||||
22, //62
|
||||
|
||||
5,
|
||||
000000000000000000000008000000000000000000300000,
|
||||
00000006,
|
||||
000000000000000000000000000000000008000000000000,
|
||||
|
||||
03,
|
||||
04,
|
||||
03,
|
||||
04, //70
|
||||
|
||||
03,
|
||||
0045,
|
||||
000000000000000000000000000000000008000000000000,
|
||||
04,
|
||||
|
||||
03,
|
||||
04,
|
||||
03,
|
||||
04,
|
||||
|
||||
03,
|
||||
0045,
|
||||
000000000000000000000000000000000008000000000000,
|
||||
03, //82
|
||||
|
||||
#GOGOSTART
|
||||
11,
|
||||
1001,
|
||||
01,
|
||||
1,
|
||||
|
||||
11,
|
||||
1005,
|
||||
000000000000000000000000000000000008000000000000,
|
||||
03, //90
|
||||
|
||||
11,
|
||||
1001,
|
||||
01,
|
||||
1,
|
||||
|
||||
11,
|
||||
1005,
|
||||
000000000000000000000000000000000008000000000000,
|
||||
03, //98
|
||||
|
||||
04,
|
||||
#GOGOEND
|
||||
0,
|
||||
0,
|
||||
0,
|
||||
0, //103
|
||||
#END
|
||||
Reference in New Issue
Block a user