tja
This commit is contained in:
507
tja/1373.tja
Normal file
507
tja/1373.tja
Normal file
@@ -0,0 +1,507 @@
|
||||
//TJADB Project
|
||||
TITLE:Everlasting Love
|
||||
TITLEJA:千年之恋
|
||||
TITLEZH:千年之恋
|
||||
SUBTITLE:--
|
||||
SUBTITLEJA:
|
||||
SUBTITLEZH:
|
||||
BPM:143
|
||||
WAVE:Everlasting Love.ogg
|
||||
OFFSET:-3.451
|
||||
DEMOSTART:93.649
|
||||
|
||||
COURSE:Oni
|
||||
LEVEL:6
|
||||
BALLOON:30,45
|
||||
SCOREINIT:2520
|
||||
SCOREDIFF:0
|
||||
|
||||
#START
|
||||
1010101120001020,
|
||||
1010101120001000,
|
||||
500000000000000000000000000000000000000008000000,
|
||||
1010201120102000,
|
||||
|
||||
1010101120001020,
|
||||
1010101120001000,
|
||||
500000000000000000000000000000000000000000000008,
|
||||
04, //8
|
||||
|
||||
10221020,
|
||||
10221020,
|
||||
10221020,
|
||||
11212020,
|
||||
|
||||
10221020,
|
||||
10221020,
|
||||
10221020,
|
||||
10212000, //16
|
||||
|
||||
10211020,
|
||||
11211021,
|
||||
1000201110002011,
|
||||
1000201110102010,
|
||||
6,
|
||||
000000000000000008000000400000000000200000200000, //22
|
||||
|
||||
#GOGOSTART
|
||||
3000101120101020,
|
||||
1022101040002020,
|
||||
1000101120101020,
|
||||
1022101040002020,
|
||||
|
||||
1000101120102000,
|
||||
1020101120101000,
|
||||
1000201022102000,
|
||||
1020201110102020, //30
|
||||
|
||||
1000101120101020,
|
||||
1022101040002020,
|
||||
1000101120101020,
|
||||
1022101040002020,
|
||||
|
||||
1000101120102000,
|
||||
1020101120101000,
|
||||
3360,
|
||||
000008000000000000000000300000000000000000000000, //38
|
||||
|
||||
7,
|
||||
000000000000000000000000000000000000000000080000,
|
||||
1011101020101020,
|
||||
1021101020102000,
|
||||
|
||||
1011101020101020,
|
||||
1021101020102000,
|
||||
1011101020111111,
|
||||
10000022, //46
|
||||
#GOGOEND
|
||||
|
||||
20220200,
|
||||
00200022,
|
||||
20220200,
|
||||
20000022,
|
||||
|
||||
10221200,
|
||||
10221200,
|
||||
1110201110201000,
|
||||
1110201110002020, //54
|
||||
|
||||
#GOGOSTART
|
||||
1000201120101020,
|
||||
1022101040002020,
|
||||
1000201120112010,
|
||||
1022101011111111,
|
||||
|
||||
1000101120102010,
|
||||
1020101120101000,
|
||||
32306000,
|
||||
000008000000000000000000300000000000000000000000, //62
|
||||
#GOGOEND
|
||||
|
||||
7,
|
||||
#BPMCHANGE 155.32
|
||||
#SCROLL 0.92
|
||||
0,
|
||||
#BPMCHANGE 157.74
|
||||
#SCROLL 0.9
|
||||
0,
|
||||
#BPMCHANGE 163.74
|
||||
#SCROLL 0.87
|
||||
80010102, //66
|
||||
|
||||
#BPMCHANGE 177.31
|
||||
#SCROLL 0.8
|
||||
20201102,
|
||||
#MEASURE 6/4
|
||||
#BPMCHANGE 200.47
|
||||
#SCROLL 0.71
|
||||
20110220
|
||||
#BPMCHANGE 174.544
|
||||
#SCROLL 0.81
|
||||
1200,
|
||||
|
||||
#MEASURE 23/4
|
||||
#BPMCHANGE 128.85
|
||||
#SCROLL 1.1
|
||||
1
|
||||
#BPMCHANGE 122.26
|
||||
#SCROLL 1.16
|
||||
0
|
||||
#BPMCHANGE 116.3
|
||||
#SCROLL 1.22
|
||||
0
|
||||
#SCROLL 1
|
||||
40000000000000000000, //69
|
||||
#END
|
||||
|
||||
|
||||
COURSE:Hard
|
||||
LEVEL:3
|
||||
BALLOON:25,60
|
||||
SCOREINIT:5020
|
||||
SCOREDIFF:0
|
||||
|
||||
#START
|
||||
11102000,
|
||||
11102000,
|
||||
500000000000000000000000000008000000000000000000,
|
||||
1122,
|
||||
|
||||
11102010,
|
||||
11102000,
|
||||
500000000000000000000000000000000000000000000008,
|
||||
0, //8
|
||||
|
||||
1012,
|
||||
1012,
|
||||
1012,
|
||||
10222000,
|
||||
|
||||
1012,
|
||||
1012,
|
||||
1012,
|
||||
10022000, //16
|
||||
|
||||
10011010,
|
||||
10011011,
|
||||
10011001,
|
||||
10011010,
|
||||
6,
|
||||
000000000008000000000000000000000000200000000000, //22
|
||||
|
||||
#GOGOSTART
|
||||
10102110,
|
||||
1041,
|
||||
10102110,
|
||||
1041,
|
||||
|
||||
10102110,
|
||||
10112100,
|
||||
10112110,
|
||||
10112000, //30
|
||||
|
||||
10102110,
|
||||
1041,
|
||||
10102110,
|
||||
1041,
|
||||
|
||||
10112100,
|
||||
10112110,
|
||||
3360,
|
||||
000008000000000000000000300000000000000000000000, //38
|
||||
|
||||
9,
|
||||
09,
|
||||
8,
|
||||
0,
|
||||
|
||||
1121,
|
||||
10102220,
|
||||
1121,
|
||||
3, //46
|
||||
#GOGOEND
|
||||
|
||||
22,
|
||||
0200,
|
||||
22,
|
||||
2,
|
||||
|
||||
1220,
|
||||
1220,
|
||||
30330330,
|
||||
30033020, //54
|
||||
|
||||
#GOGOSTART
|
||||
10102110,
|
||||
1041,
|
||||
10102110,
|
||||
1021,
|
||||
|
||||
10112100,
|
||||
10112110,
|
||||
3360,
|
||||
000008000000000000000000300000000000000000000000, //62
|
||||
#GOGOEND
|
||||
|
||||
9,
|
||||
#BPMCHANGE 155.32
|
||||
#SCROLL 0.92
|
||||
0,
|
||||
#BPMCHANGE 157.74
|
||||
#SCROLL 0.9
|
||||
0,
|
||||
#BPMCHANGE 163.74
|
||||
#SCROLL 0.87
|
||||
0, //66
|
||||
|
||||
#BPMCHANGE 177.31
|
||||
#SCROLL 0.8
|
||||
000000000000090000000000000000000000000000000000,
|
||||
#MEASURE 6/4
|
||||
#BPMCHANGE 200.47
|
||||
#SCROLL 0.71
|
||||
00
|
||||
#BPMCHANGE 174.54
|
||||
#SCROLL 0.81
|
||||
8,
|
||||
#MEASURE 23/4
|
||||
#BPMCHANGE 128.85
|
||||
#SCROLL 1.1
|
||||
0
|
||||
#BPMCHANGE 122.26
|
||||
#SCROLL 1.16
|
||||
0
|
||||
#BPMCHANGE 116.3
|
||||
#SCROLL 1.22
|
||||
04000
|
||||
#SCROLL 1
|
||||
0000000000000000, //69
|
||||
#END
|
||||
|
||||
|
||||
COURSE:Normal
|
||||
LEVEL:3
|
||||
BALLOON:5,17,16,45
|
||||
SCOREINIT:8650
|
||||
SCOREDIFF:0
|
||||
|
||||
#START
|
||||
12,
|
||||
11,
|
||||
500000000000000000000000000008000000000000000000,
|
||||
1110,
|
||||
|
||||
12,
|
||||
1110,
|
||||
500000000000000000000000000000000000000000000008,
|
||||
0, //8
|
||||
|
||||
1,
|
||||
1,
|
||||
1,
|
||||
22,
|
||||
|
||||
1,
|
||||
1,
|
||||
1,
|
||||
22, //16
|
||||
|
||||
11,
|
||||
1011,
|
||||
11,
|
||||
1011,
|
||||
6,
|
||||
000000000008000000000000000000000000000000000000, //22
|
||||
|
||||
#GOGOSTART
|
||||
1121,
|
||||
14,
|
||||
1121,
|
||||
14,
|
||||
|
||||
1120,
|
||||
1210,
|
||||
1110,
|
||||
700000000000000000000000000000080000000000000000, //30
|
||||
|
||||
1121,
|
||||
14,
|
||||
1121,
|
||||
14,
|
||||
|
||||
1120,
|
||||
1210,
|
||||
3360,
|
||||
000008000000000000000000300000000000000000000000, //38
|
||||
|
||||
9,
|
||||
09,
|
||||
8,
|
||||
0,
|
||||
|
||||
12,
|
||||
1110,
|
||||
12,
|
||||
3, //46
|
||||
#GOGOEND
|
||||
|
||||
22,
|
||||
0,
|
||||
22,
|
||||
2,
|
||||
|
||||
22,
|
||||
22,
|
||||
7,
|
||||
00000800, //54
|
||||
|
||||
#GOGOSTART
|
||||
1121,
|
||||
14,
|
||||
1122,
|
||||
14,
|
||||
|
||||
1121,
|
||||
1120,
|
||||
3360,
|
||||
000008000000000000000000300000000000000000000000, //62
|
||||
#GOGOEND
|
||||
|
||||
9,
|
||||
#BPMCHANGE 155.32
|
||||
#SCROLL 0.92
|
||||
0,
|
||||
#BPMCHANGE 157.74
|
||||
#SCROLL 0.9
|
||||
0,
|
||||
#BPMCHANGE 163.74
|
||||
#SCROLL 0.87
|
||||
0, //66
|
||||
|
||||
#BPMCHANGE 177.31
|
||||
#SCROLL 0.8
|
||||
000000000000090000000000000000000000000000000000,
|
||||
#MEASURE 6/4
|
||||
#BPMCHANGE 200.47
|
||||
#SCROLL 0.71
|
||||
00
|
||||
#BPMCHANGE 174.54
|
||||
#SCROLL 0.81
|
||||
8,
|
||||
#MEASURE 23/4
|
||||
#BPMCHANGE 128.85
|
||||
#SCROLL 1.1
|
||||
0
|
||||
#BPMCHANGE 122.26
|
||||
#SCROLL 1.16
|
||||
0
|
||||
#BPMCHANGE 116.3
|
||||
#SCROLL 1.22
|
||||
04000
|
||||
#SCROLL 1
|
||||
0000000000000000, //69
|
||||
#END
|
||||
|
||||
|
||||
COURSE:Easy
|
||||
LEVEL:2
|
||||
BALLOON:11,14,11,35
|
||||
SCOREINIT:15440
|
||||
SCOREDIFF:0
|
||||
|
||||
#START
|
||||
1,
|
||||
11,
|
||||
500000000000000000000000000000000000000000000008,
|
||||
0,
|
||||
|
||||
1,
|
||||
11,
|
||||
500000000000000000000000000000000000000000000008,
|
||||
0, //8
|
||||
|
||||
1,
|
||||
1,
|
||||
1,
|
||||
2,
|
||||
|
||||
1,
|
||||
1,
|
||||
1,
|
||||
2, //16
|
||||
|
||||
1,
|
||||
11,
|
||||
1,
|
||||
11,
|
||||
6,
|
||||
000000000008000000000000000000000000000000000000, //22
|
||||
|
||||
#GOGOSTART
|
||||
11,
|
||||
1,
|
||||
11,
|
||||
1,
|
||||
|
||||
11,
|
||||
11,
|
||||
7,
|
||||
00000800, //30
|
||||
|
||||
11,
|
||||
1,
|
||||
11,
|
||||
1,
|
||||
|
||||
11,
|
||||
11,
|
||||
3360,
|
||||
000008000000000000000000000000000000000000000000, //38
|
||||
|
||||
9,
|
||||
09,
|
||||
8,
|
||||
0,
|
||||
|
||||
1,
|
||||
11,
|
||||
1,
|
||||
3, //46
|
||||
#GOGOEND
|
||||
|
||||
2,
|
||||
0,
|
||||
2,
|
||||
0,
|
||||
|
||||
2,
|
||||
2,
|
||||
7,
|
||||
00000800, //54
|
||||
|
||||
#GOGOSTART
|
||||
11,
|
||||
1,
|
||||
11,
|
||||
2,
|
||||
|
||||
11,
|
||||
12,
|
||||
3360,
|
||||
000008000000000000000000000000000000000000000000, //62
|
||||
#GOGOEND
|
||||
|
||||
9,
|
||||
#BPMCHANGE 155.32
|
||||
#SCROLL 0.92
|
||||
0,
|
||||
#BPMCHANGE 157.74
|
||||
#SCROLL 0.9
|
||||
0,
|
||||
#BPMCHANGE 163.74
|
||||
#SCROLL 0.87
|
||||
0, //66
|
||||
|
||||
#BPMCHANGE 177.31
|
||||
#SCROLL 0.8
|
||||
000000000000090000000000000000000000000000000000,
|
||||
#MEASURE 6/4
|
||||
#BPMCHANGE 200.47
|
||||
#SCROLL 0.71
|
||||
00
|
||||
#BPMCHANGE 174.54
|
||||
#SCROLL 0.81
|
||||
8,
|
||||
#MEASURE 23/4
|
||||
#BPMCHANGE 128.85
|
||||
#SCROLL 1.1
|
||||
0
|
||||
#BPMCHANGE 122.26
|
||||
#SCROLL 1.16
|
||||
0
|
||||
#BPMCHANGE 116.3
|
||||
#SCROLL 1.22
|
||||
04000
|
||||
#SCROLL 1
|
||||
0000000000000000, //69
|
||||
#END
|
||||
Reference in New Issue
Block a user