This commit is contained in:
2026-03-04 23:59:27 +09:00
parent 6e0312f5b4
commit 4b4e2b8c98
1128 changed files with 668765 additions and 0 deletions

418
tja/1375.tja Normal file
View File

@@ -0,0 +1,418 @@
//TJADB Project
TITLE:YIN XING DE CHI BANG
TITLEJA:YIN XING DE CHI BANG
TITLEZH:隐形的翅膀
SUBTITLE:--
SUBTITLEJA:
SUBTITLEZH:
BPM:72
WAVE:YIN XING DE CHI BANG.ogg
OFFSET:-3.348
DEMOSTART:55.857
COURSE:Oni
LEVEL:5
BALLOON:14,30
SCOREINIT:5210
SCOREDIFF:0
#START
100000000100200000101020,
10012000,
1000100010100011,
1120,
1020101020000011,
1000001120000000,
2010101020002011,
10201022, //8
1000101120102020,
1020102210002020,
1000101120102020,
1020101120002020,
1000101120102020,
1020102210002020,
1000102220012010,
70008022, //16
#GOGOSTART
600000000008000000200000100000000000100100200000,
1020102210002022,
1020001110101120,
1010201121002020,
600000000008000000200000100000000000100100200000,
1020102210002022,
1020001120102022,
1000200021102020, //24
#GOGOEND
500000000008000000200000100000000000100100200000,
1020102210002020, //26
#MEASURE 5/4
#BPMCHANGE 60.555
#SCROLL 1.18
12
#BPMCHANGE 56.558
#SCROLL 1.27
01
#BPMCHANGE 59.616
#SCROLL 1.2
12
#BPMCHANGE 51.487
#SCROLL 1.39
2000, //27
#MEASURE 3/4
#BPMCHANGE 34.875
#SCROLL 2.06
500000000008
#BPMCHANGE 70.492
#SCROLL 1
000000000000
#BPMCHANGE 65.755
000000000000, //28
#MEASURE 4/4
#BPMCHANGE 69.224
1000
#BPMCHANGE 66.899
#SCROLL 1.07
0011
#BPMCHANGE 63.950
#SCROLL 1.12
1010
#BPMCHANGE 49.366
#SCROLL 1.45
1010, //29
#MEASURE 2/4
#BPMCHANGE 33.558
#SCROLL 2.14
1
#BPMCHANGE 28.816
#SCROLL 2.49
1, //30
#MEASURE 8/4
#BPMCHANGE 55.776
#SCROLL 1
700000
#BPMCHANGE 55.719
000000
#BPMCHANGE 52.334
000000
#BPMCHANGE 38.175
000008
#BPMCHANGE 38.176
000000000000000000000000, //31
#END
COURSE:Hard
LEVEL:4
BALLOON:11
SCOREINIT:6720
SCOREDIFF:0
#START
10012010,
10011000,
10101001,
1120,
10012001,
10012000,
20101001,
10000022, //8
10011022,
12111022,
10011122,
12112022,
10011122,
12111022,
10022020,
70080022, //16
#GOGOSTART
600000000008000000100000100000000000200000200000,
1020101110002020,
1020001110102020,
10212022,
600000000008000000100000100000000000200000200000,
1020101110002020,
1020001110102020,
10201022, //24
#GOGOEND
500000000008000000200000200000000000200000200000,
1020101110002020, //26
#MEASURE 5/4
#BPMCHANGE 60.555
#SCROLL 1.18
22
#BPMCHANGE 56.558
#SCROLL 1.27
02
#BPMCHANGE 59.616
#SCROLL 1.2
20
#BPMCHANGE 51.487
#SCROLL 1.39
2000, //27
#MEASURE 3/4
#BPMCHANGE 34.875
#SCROLL 2.06
500000000008
#BPMCHANGE 70.492
#SCROLL 1
000000000000
#BPMCHANGE 65.755
000000000000, //28
#MEASURE 4/4
#BPMCHANGE 69.224
10
#BPMCHANGE 66.899
#SCROLL 1.07
01
#BPMCHANGE 63.950
#SCROLL 1.12
10
#BPMCHANGE 49.366
#SCROLL 1.45
11, //29
#MEASURE 2/4
#BPMCHANGE 33.558
#SCROLL 2.14
1
#BPMCHANGE 28.816
#SCROLL 2.49
1, //30
#MEASURE 8/4
#BPMCHANGE 55.776
#SCROLL 1
1
#BPMCHANGE 55.719
0
#BPMCHANGE 52.334
0
#BPMCHANGE 38.175
0
#BPMCHANGE 38.176
0000, //31
#END
COURSE:Normal
LEVEL:3
BALLOON:7,18
SCOREINIT:12280
SCOREDIFF:0
#START
11,
10011000,
11,
1,
12,
11,
21,
1, //8
10011000,
10111000,
10011000,
20222000,
10011000,
10111000,
10022020,
70080000, //16
#GOGOSTART
600000000008000000000000100000000000200000200000,
10111000,
10011011,
1,
600000000008000000000000100000000000200000200000,
10111000,
10011011,
1001, //24
#GOGOEND
500000000008000000000000100000000000200000000000,
20222000, //26
#MEASURE 5/4
#BPMCHANGE 60.555
#SCROLL 1.18
2
#BPMCHANGE 56.558
#SCROLL 1.27
0
#BPMCHANGE 59.616
#SCROLL 1.2
2
#BPMCHANGE 51.487
#SCROLL 1.39
20, //27
#MEASURE 3/4
#BPMCHANGE 34.875
#SCROLL 2.06
500000000008
#BPMCHANGE 70.492
#SCROLL 1
000000000000
#BPMCHANGE 65.755
000000000000, //28
#MEASURE 4/4
#BPMCHANGE 69.224
1
#BPMCHANGE 66.899
#SCROLL 1.07
0
#BPMCHANGE 63.950
#SCROLL 1.12
1
#BPMCHANGE 49.366
#SCROLL 1.45
1, //29
#MEASURE 2/4
#BPMCHANGE 33.558
#SCROLL 2.14
1
#BPMCHANGE 28.816
#SCROLL 2.49
1, //30
#MEASURE 8/4
#BPMCHANGE 55.776
#SCROLL 1
700000
#BPMCHANGE 55.719
000000
#BPMCHANGE 52.334
000000
#BPMCHANGE 38.175
000008
#BPMCHANGE 38.176
000000000000000000000000, //31
#END
COURSE:Easy
LEVEL:1
BALLOON:6
SCOREINIT:18810
SCOREDIFF:0
#START
1,
1,
1,
1,
11,
11,
22,
1, //8
11,
1110,
11,
2220,
11,
1110,
12,
70080000, //16
#GOGOSTART
600000000008000000000000100000000000000000000000,
1110,
12,
1,
600000000008000000000000100000000000000000000000,
1110,
12,
1, //24
#GOGOEND
500000000008000000000000200000000000000000000000,
2220, //26
#MEASURE 5/4
#BPMCHANGE 60.555
#SCROLL 1.18
2
#BPMCHANGE 56.558
#SCROLL 1.27
0
#BPMCHANGE 59.616
#SCROLL 1.2
2
#BPMCHANGE 51.487
#SCROLL 1.39
00, //27
#MEASURE 3/4
#BPMCHANGE 34.875
#SCROLL 2.06
500000000008
#BPMCHANGE 70.492
#SCROLL 1
000000000000
#BPMCHANGE 65.755
000000000000, //28
#MEASURE 4/4
#BPMCHANGE 69.224
1
#BPMCHANGE 66.899
#SCROLL 1.07
0
#BPMCHANGE 63.950
#SCROLL 1.12
1
#BPMCHANGE 49.366
#SCROLL 1.45
0, //29
#MEASURE 2/4
#BPMCHANGE 33.558
#SCROLL 2.14
1
#BPMCHANGE 28.816
#SCROLL 2.49
1, //30
#MEASURE 8/4
#BPMCHANGE 55.776
#SCROLL 1
1
#BPMCHANGE 55.719
0
#BPMCHANGE 52.334
0
#BPMCHANGE 38.175
0
#BPMCHANGE 38.176
0000, //31
#END