tja
This commit is contained in:
707
tja/1380.tja
Normal file
707
tja/1380.tja
Normal file
@@ -0,0 +1,707 @@
|
||||
//TJADB Project
|
||||
TITLE:Oshama Scramble!
|
||||
TITLEJA:Oshama Scramble!
|
||||
SUBTITLE:--t+pazolite/maimai DX
|
||||
SUBTITLEJA:t+pazolite 「maimai でらっくす」より
|
||||
BPM:190
|
||||
WAVE:Oshama Scramble!.ogg
|
||||
OFFSET:-0.941
|
||||
DEMOSTART:41.783
|
||||
|
||||
//shinuchi: 3570/2460/1950/1290/1100
|
||||
|
||||
COURSE:Edit
|
||||
LEVEL:10
|
||||
BALLOON:
|
||||
SCOREINIT:400,1150
|
||||
SCOREDIFF:100
|
||||
|
||||
#START
|
||||
1001102010201020,
|
||||
12211122,
|
||||
1001102010201020,
|
||||
12212122,
|
||||
|
||||
1022201101112020,
|
||||
1221010111212020,
|
||||
1111222212112122,
|
||||
102220201111
|
||||
#SCROLL 2
|
||||
4000, //8
|
||||
|
||||
#SCROLL 1
|
||||
1002102012201020,
|
||||
1222102210201020,
|
||||
1002102012201020,
|
||||
1222102210102020,
|
||||
|
||||
1002102012201020,
|
||||
1222102210201020,
|
||||
1012101012121010,
|
||||
111120201110
|
||||
#SCROLL 2
|
||||
4000, //16
|
||||
|
||||
#SCROLL 1
|
||||
10010101,
|
||||
01,
|
||||
10010101,
|
||||
0012,
|
||||
|
||||
10010101,
|
||||
000000000000100000111111,
|
||||
10010101,
|
||||
0000111110002020, //24
|
||||
|
||||
3022102010102010,
|
||||
2011200020001020,
|
||||
3022102030221020,
|
||||
300111100111100111100200,
|
||||
|
||||
1022102011201022,
|
||||
1020202010012012,
|
||||
1022102210201020,
|
||||
100000100000100000100000101010100000101010100100,
|
||||
100000221010
|
||||
#SCROLL 2
|
||||
4000, //33
|
||||
|
||||
#SCROLL 1
|
||||
#GOGOSTART
|
||||
3022102210221022,
|
||||
1022102210202010,
|
||||
3022102210221022,
|
||||
1002101020221010,
|
||||
|
||||
3022102210221022,
|
||||
1022102210202010,
|
||||
3022102210221022,
|
||||
#GOGOEND
|
||||
500000000008000000200200100000100000
|
||||
#SCROLL 2
|
||||
400000000000, //41
|
||||
|
||||
#SCROLL 1
|
||||
#GOGOSTART
|
||||
3022102210221022,
|
||||
1022102210202010,
|
||||
3022102210221022,
|
||||
1002101020221010,
|
||||
|
||||
3022102210221022,
|
||||
1022102210202010,
|
||||
300000300000300000300000100100100100101010101010,
|
||||
#GOGOEND
|
||||
100222111400, //49
|
||||
|
||||
30221020,
|
||||
2000202210002000,
|
||||
10221020,
|
||||
1000111120002000,
|
||||
|
||||
10221020,
|
||||
500000000008000000000000600000000008000000000000,
|
||||
1010101011111111,
|
||||
1, //57
|
||||
|
||||
3011102011201120,
|
||||
1022022010221022,
|
||||
1011102011201120,
|
||||
1022121210102222,
|
||||
|
||||
1011102011201120,
|
||||
1022102012201020,
|
||||
1011102010221020,
|
||||
101111102010
|
||||
#SCROLL 2
|
||||
4000, //65
|
||||
|
||||
#SCROLL 1
|
||||
1001102011201020,
|
||||
1001102011201020,
|
||||
1001102010011020,
|
||||
1220102212201010,
|
||||
|
||||
1020102010201122,
|
||||
1022102210221022,
|
||||
1122112212121212,
|
||||
100100100100100100100100101010101010101010101010,
|
||||
1,
|
||||
300000221010
|
||||
#SCROLL 3
|
||||
4000, //75
|
||||
|
||||
#SCROLL 1
|
||||
#GOGOSTART
|
||||
3022102011221022,
|
||||
100000200000100000101010100000000200100000200000,
|
||||
300111100200300111100200,
|
||||
300222200100100000
|
||||
#SCROLL 3
|
||||
400000,
|
||||
|
||||
#SCROLL 1
|
||||
1022102011221022,
|
||||
100000101010200000200000300000000200100000200000,
|
||||
1022101011221010,
|
||||
000000101010100000101010100000100000200200200200, //83
|
||||
|
||||
1022102011221022,
|
||||
100000200000100000101010100000000200100000200000,
|
||||
300111100200300111100200,
|
||||
300222200100100000
|
||||
#SCROLL 3
|
||||
400000,
|
||||
|
||||
#SCROLL 1
|
||||
300000202020100000100000100200100000100000200000,
|
||||
100000101010200000100000200000000200100000100000,
|
||||
1122112212121212,
|
||||
111100111100111111
|
||||
#SCROLL 3
|
||||
400000, //91
|
||||
#GOGOEND
|
||||
|
||||
#SCROLL 1
|
||||
5,
|
||||
0,
|
||||
0,
|
||||
000000000000000000000000000008000000200000000000,
|
||||
0, //96
|
||||
#END
|
||||
|
||||
|
||||
COURSE:Oni
|
||||
LEVEL:9
|
||||
BALLOON:5,12
|
||||
SCOREINIT:450,1460
|
||||
SCOREDIFF:108
|
||||
|
||||
#START
|
||||
1001102000200020,
|
||||
01221122,
|
||||
1001102000200020,
|
||||
01221122,
|
||||
|
||||
1022201011102020,
|
||||
1011102011102020,
|
||||
1111202011112020,
|
||||
1022202011104000, //8
|
||||
|
||||
1002102010202000,
|
||||
1122102011102020,
|
||||
1002102010202000,
|
||||
1122102011104000,
|
||||
|
||||
1002102010202000,
|
||||
1122102011102020,
|
||||
1011101010111010,
|
||||
1110202011104000, //16
|
||||
|
||||
12210102,
|
||||
02200022,
|
||||
10221022,
|
||||
12221022,
|
||||
|
||||
12210102,
|
||||
02112022,
|
||||
12110221,
|
||||
02020200, //24
|
||||
|
||||
32210212,
|
||||
0011200020001020,
|
||||
30123012,
|
||||
32323022,
|
||||
|
||||
12210212,
|
||||
12221022,
|
||||
1022202011102050,
|
||||
000000000000000000000000000000000000000000000008,
|
||||
0000002210104000, //33
|
||||
|
||||
#GOGOSTART
|
||||
32323232,
|
||||
32323221,
|
||||
32323232,
|
||||
30112211,
|
||||
|
||||
32323232,
|
||||
32323221,
|
||||
32323232,
|
||||
#GOGOEND
|
||||
500000000008000000200200100000100000400000000000, //41
|
||||
|
||||
#GOGOSTART
|
||||
32323232,
|
||||
32323221,
|
||||
32323232,
|
||||
30112211,
|
||||
|
||||
32323232,
|
||||
32323221,
|
||||
3030303011101111,
|
||||
#GOGOEND
|
||||
1708, //49
|
||||
|
||||
30221020,
|
||||
500000000000000000000008000000000000200000000000,
|
||||
10221020,
|
||||
500000000000000000000008000000000000100000000000,
|
||||
|
||||
10221020,
|
||||
500000000008000000000000500000000008000000000000,
|
||||
7,
|
||||
8, //57
|
||||
|
||||
3001102010201020,
|
||||
1022002010001000,
|
||||
3001102010201020,
|
||||
1020121210102220,
|
||||
|
||||
1001102010201020,
|
||||
1022201022201020,
|
||||
1001102010021020,
|
||||
1011101020104000, //65
|
||||
|
||||
1001102011201020,
|
||||
1001102011201020,
|
||||
1001102010011020,
|
||||
1120102011201120,
|
||||
|
||||
12121212,
|
||||
1022102210221022,
|
||||
11111111,
|
||||
100100100100100100100100500000000000000000000008,
|
||||
0,
|
||||
3000002210104000, //75
|
||||
|
||||
#GOGOSTART
|
||||
3022111020112022,
|
||||
1011202010011020,
|
||||
3001102030011020,
|
||||
3022201010004000,
|
||||
|
||||
1022111020112022,
|
||||
1011202030011020,
|
||||
1022121010221210,
|
||||
0030003000302220, //83
|
||||
|
||||
3022111020112022,
|
||||
1011202010011020,
|
||||
3001102030011020,
|
||||
3022201010004000,
|
||||
|
||||
3022111011201120,
|
||||
1022221120021010,
|
||||
1022102012102020,
|
||||
1122112211104000, //91
|
||||
#GOGOEND
|
||||
|
||||
5,
|
||||
0,
|
||||
0,
|
||||
000000000000000000000000000008000000200000000000,
|
||||
0, //96
|
||||
#END
|
||||
|
||||
|
||||
COURSE:Hard
|
||||
LEVEL:7
|
||||
BALLOON:10
|
||||
SCOREINIT:510,2310
|
||||
SCOREDIFF:133
|
||||
|
||||
#START
|
||||
0,
|
||||
0,
|
||||
0,
|
||||
0,
|
||||
|
||||
1111,
|
||||
10101110,
|
||||
11101110,
|
||||
10221040, //8
|
||||
|
||||
10111020,
|
||||
1110,
|
||||
10111020,
|
||||
11101110,
|
||||
|
||||
10111020,
|
||||
10111010,
|
||||
11101110,
|
||||
11111040, //16
|
||||
|
||||
20220202,
|
||||
02200022,
|
||||
1212,
|
||||
11221020,
|
||||
|
||||
20220202,
|
||||
01112022,
|
||||
10110221,
|
||||
02020200, //24
|
||||
|
||||
30220101,
|
||||
01202012,
|
||||
30123012,
|
||||
32323020,
|
||||
|
||||
10220202,
|
||||
12221011,
|
||||
10220125,
|
||||
000000000000000000000000000000000000000000000008,
|
||||
00011040, //33
|
||||
|
||||
#GOGOSTART
|
||||
3333,
|
||||
30301122,
|
||||
3333,
|
||||
10112210,
|
||||
|
||||
3333,
|
||||
30301122,
|
||||
3333,
|
||||
#GOGOEND
|
||||
10011040, //41
|
||||
|
||||
#GOGOSTART
|
||||
3333,
|
||||
30301122,
|
||||
3333,
|
||||
10112210,
|
||||
|
||||
3333,
|
||||
30301122,
|
||||
33333333,
|
||||
#GOGOEND
|
||||
3, //49
|
||||
|
||||
30222020,
|
||||
500000000000000000000000000008000000000000000000,
|
||||
10222020,
|
||||
500000000000000000000000000008000000000000000000,
|
||||
|
||||
10222020,
|
||||
500000000008000000000000500000000008000000000000,
|
||||
7,
|
||||
8, //57
|
||||
|
||||
30120202,
|
||||
10011010,
|
||||
10120202,
|
||||
10111020,
|
||||
|
||||
10120202,
|
||||
10101120,
|
||||
10121012,
|
||||
10111040, //65
|
||||
|
||||
10121212,
|
||||
10121212,
|
||||
10121012,
|
||||
12221010,
|
||||
|
||||
12121212,
|
||||
12121212,
|
||||
11111111,
|
||||
500000000000000000000000000000000000000000000008,
|
||||
0,
|
||||
30011040, //75
|
||||
|
||||
#GOGOSTART
|
||||
32210212,
|
||||
01201012,
|
||||
30123012,
|
||||
30111040,
|
||||
|
||||
12210212,
|
||||
11223010,
|
||||
1010101011101010,
|
||||
03030300, //83
|
||||
|
||||
12210212,
|
||||
01201012,
|
||||
30123012,
|
||||
30111040,
|
||||
|
||||
30110111,
|
||||
1011101020001010,
|
||||
21220122,
|
||||
1010101011104000, //91
|
||||
#GOGOEND
|
||||
|
||||
5,
|
||||
0,
|
||||
0,
|
||||
000000000000000000000000000008000000200000000000,
|
||||
0, //96
|
||||
#END
|
||||
|
||||
|
||||
COURSE:Normal
|
||||
LEVEL:6
|
||||
BALLOON:7
|
||||
SCOREINIT:490,3080
|
||||
SCOREDIFF:133
|
||||
|
||||
#START
|
||||
0,
|
||||
0,
|
||||
0,
|
||||
0,
|
||||
|
||||
1110,
|
||||
1110,
|
||||
1111,
|
||||
1014, //8
|
||||
|
||||
10111010,
|
||||
1110,
|
||||
10111010,
|
||||
1120,
|
||||
|
||||
10111010,
|
||||
1110,
|
||||
11101110,
|
||||
10111040, //16
|
||||
|
||||
20220202,
|
||||
02200020,
|
||||
1212,
|
||||
1220,
|
||||
|
||||
20220202,
|
||||
02202000,
|
||||
10110101,
|
||||
02020200, //24
|
||||
|
||||
30220101,
|
||||
02200010,
|
||||
3131,
|
||||
3330,
|
||||
|
||||
10220101,
|
||||
02202000,
|
||||
10220115,
|
||||
000000000000000000000000000000000000000000000008,
|
||||
0014, //33
|
||||
|
||||
#GOGOSTART
|
||||
3333,
|
||||
3330,
|
||||
3333,
|
||||
10111010,
|
||||
|
||||
3333,
|
||||
3330,
|
||||
3333,
|
||||
#GOGOEND
|
||||
1014, //41
|
||||
|
||||
#GOGOSTART
|
||||
3333,
|
||||
3330,
|
||||
3333,
|
||||
10111010,
|
||||
|
||||
3333,
|
||||
3330,
|
||||
30301111,
|
||||
#GOGOEND
|
||||
1, //49
|
||||
|
||||
31,
|
||||
500000000000000000000000000008000000000000000000,
|
||||
11,
|
||||
500000000000000000000000000008000000000000000000,
|
||||
|
||||
11,
|
||||
500000000008000000000000500000000008000000000000,
|
||||
7,
|
||||
8, //57
|
||||
|
||||
30220201,
|
||||
11,
|
||||
10220201,
|
||||
12,
|
||||
|
||||
10220201,
|
||||
1110,
|
||||
10111011,
|
||||
1114, //65
|
||||
|
||||
10220201,
|
||||
10220201,
|
||||
1212,
|
||||
1110,
|
||||
|
||||
1111,
|
||||
1111,
|
||||
11101110,
|
||||
11111110,
|
||||
1,
|
||||
3014, //75
|
||||
|
||||
#GOGOSTART
|
||||
30110202,
|
||||
02201000,
|
||||
30113011,
|
||||
3334,
|
||||
|
||||
10110202,
|
||||
01103000,
|
||||
10110111,
|
||||
03030300, //83
|
||||
|
||||
10110202,
|
||||
01103000,
|
||||
30113011,
|
||||
3334,
|
||||
|
||||
30110202,
|
||||
01111010,
|
||||
10220111,
|
||||
1114, //91
|
||||
#GOGOEND
|
||||
|
||||
5,
|
||||
0,
|
||||
0,
|
||||
000000000000000000000000000008000000200000000000,
|
||||
0, //96
|
||||
#END
|
||||
|
||||
|
||||
COURSE:Easy
|
||||
LEVEL:4
|
||||
BALLOON:6
|
||||
SCOREINIT:390,4950
|
||||
SCOREDIFF:125
|
||||
|
||||
#START
|
||||
0,
|
||||
0,
|
||||
0,
|
||||
0,
|
||||
|
||||
11,
|
||||
11,
|
||||
1110,
|
||||
13, //8
|
||||
|
||||
1110,
|
||||
11,
|
||||
1110,
|
||||
12,
|
||||
|
||||
1110,
|
||||
11,
|
||||
1111,
|
||||
14, //16
|
||||
|
||||
2,
|
||||
0,
|
||||
11,
|
||||
1,
|
||||
|
||||
2,
|
||||
0,
|
||||
10000001,
|
||||
0, //24
|
||||
|
||||
31,
|
||||
1,
|
||||
33,
|
||||
3330,
|
||||
|
||||
11,
|
||||
1110,
|
||||
10001005,
|
||||
000000000000000000000000000000000000000000000008,
|
||||
04, //33
|
||||
|
||||
#GOGOSTART
|
||||
3330,
|
||||
3330,
|
||||
3333,
|
||||
11,
|
||||
|
||||
3330,
|
||||
3330,
|
||||
3333,
|
||||
#GOGOEND
|
||||
14, //41
|
||||
|
||||
#GOGOSTART
|
||||
3330,
|
||||
3330,
|
||||
3333,
|
||||
11,
|
||||
|
||||
3330,
|
||||
3330,
|
||||
3333,
|
||||
#GOGOEND
|
||||
3, //49
|
||||
|
||||
1,
|
||||
500000000000000000000000000008000000000000000000,
|
||||
1,
|
||||
500000000000000000000000000008000000000000000000,
|
||||
|
||||
1,
|
||||
500000000000000000000000000008000000000000000000,
|
||||
7,
|
||||
8, //57
|
||||
|
||||
1011,
|
||||
11,
|
||||
1011,
|
||||
12,
|
||||
|
||||
1011,
|
||||
1011,
|
||||
11,
|
||||
1130, //65
|
||||
|
||||
11,
|
||||
11,
|
||||
1111,
|
||||
1110,
|
||||
|
||||
1110,
|
||||
1110,
|
||||
1111,
|
||||
1111,
|
||||
1,
|
||||
34, //75
|
||||
|
||||
#GOGOSTART
|
||||
3110,
|
||||
1110,
|
||||
3131,
|
||||
3330,
|
||||
|
||||
1110,
|
||||
1130,
|
||||
500000000000000000000000000000000008000000000000,
|
||||
03030300, //83
|
||||
|
||||
3110,
|
||||
1110,
|
||||
3131,
|
||||
3330,
|
||||
|
||||
3110,
|
||||
2220,
|
||||
1111,
|
||||
3340, //91
|
||||
#GOGOEND
|
||||
|
||||
5,
|
||||
0,
|
||||
0,
|
||||
000000000000000008000000000000000000200000000000,
|
||||
0, //96
|
||||
#END
|
||||
Reference in New Issue
Block a user