This commit is contained in:
2026-03-04 23:59:27 +09:00
parent 6e0312f5b4
commit 4b4e2b8c98
1128 changed files with 668765 additions and 0 deletions

356
tja/1386.tja Normal file
View File

@@ -0,0 +1,356 @@
//TJADB Project
TITLE:NEW KAWAII
TITLEJA:NEW KAWAII
SUBTITLE:--FRUITS ZIPPER
SUBTITLEJA:FRUITS ZIPPER
BPM:134
WAVE:NEW KAWAII.ogg
OFFSET:-2.050
DEMOSTART:56.445
COURSE:Oni
LEVEL:8
BALLOON:3
SCOREINIT:2210
SCOREDIFF:0
#START
2000200222200020,
22204000,
1020102210110020,
1022110100021022,
1022102211020000,
1122102211020202,
1020112010201120,
1022110100021022,
1022112010221120,
1122202221002000,
#BARLINEOFF
0, //11
#BARLINEON
1002001000102000,
10210120,
1022101120210022,
1022001120102020,
1002001000102000,
1000201011102011,
2022101122010202,
1020201022202210, ///19
1022001000404000,
1021002000404000,
1022001000404000,
1012001000404000,
1012102000404000,
1021201000404000,
1021201210040000,
1022112210040000,
1012012120112212,
1020102210122112,
1,
#BARLINEOFF
00020220, //31
#BARLINEON
#GOGOSTART
100000000200000000500008000000100100200200100000,
100000000200000000500000000000000008000000200200,
1000202210120210,
200000200000500008000000200000000000200200100000,
200000000000200000000500008000000000200200200200,
100000000000200000000500000000008000000000200000,
11221122,
33443030, //39
1011221020112210,
1021201040004040,
1011221020112210,
1021200030003000,
1021112010211120,
1021201040004040,
1000100212100010,
12127080,
#GOGOEND
2000200222200020,
22204000, //49
1020102210110020,
1022110100021022,
1022102211020000,
1122102211020202,
1020112010201120,
1022110100021022,
1022112010221120,
1221222210000000,
0, //58
#END
COURSE:Hard
LEVEL:5
BALLOON:2
SCOREINIT:3150
SCOREDIFF:0
#START
20202200,
22204000,
1000100020020000,
1020100100002000,
1020102010010000,
1010202010020200,
11221122,
1020100100002000,
11221122,
1011101010001000,
#BARLINEOFF
0, //11
#BARLINEON
1001001000202000,
10110120,
1020102010010020,
1001001000202020,
1001001000202000,
10112222,
1010202010010010,
12223030, ///19
11010440,
1001001000404000,
10200440,
11010440,
11210440,
1002001000404000,
1010101110030000,
2020202220040000,
1001001010202010,
1020201010010011,
1,
#BARLINEOFF
00020220, //31
#BARLINEON
#GOGOSTART
1002001000111020,
100000000200000000500000000000000008000000000000,
1000202010010010,
12103000,
1000200100001110,
100000000000200000000500000000008000000000000000,
11221120,
33334040, //39
11221122,
11204040,
11221122,
12103030,
12121122,
12104040,
1000100011100010,
12127080,
#GOGOEND
2000200022200020,
22204000, //49
1000100020020000,
1020100100002000,
1020102010010000,
1010202010020200,
11221122,
1020100100002000,
0010222000102220,
1010111010000000,
0, //58
#END
COURSE:Normal
LEVEL:5
BALLOON:5
SCOREINIT:5040
SCOREDIFF:0
#START
0,
22,
1110,
1000100100000000,
1110,
11103000,
01110111,
0000100100000000,
01110111,
600000000000000000000000000000000008000000000000,
#BARLINEOFF
0, //11
#BARLINEON
1001001000000000,
10110000,
22202000,
1001001000000000,
1001001000000000,
10110000,
22202000,
7008, ///19
11010000,
1001001000000000,
2220,
11103000,
11010000,
1001003000000000,
11104000,
11104000,
1001001010001000,
1010100010010010,
1,
#BARLINEOFF
0, //31
#BARLINEON
#GOGOSTART
1001001000002000,
100000000100000000500000000000000008000000000000,
20222000,
11103000,
1000100100002000,
100000000000200000000500000000008000000000000000,
11102220,
3344, //39
01110111,
02204040,
01110222,
01103030,
01110111,
02204040,
10101100,
22203000,
#GOGOEND
20202200,
22204000, //49
1110,
1000100100000000,
1110,
11103000,
01110111,
0010100100000000,
01110111,
1130,
0, //58
#END
COURSE:Easy
LEVEL:3
BALLOON:10
SCOREINIT:13480
SCOREDIFF:0
#START
0,
0,
1,
11,
22,
1,
11,
1,
22,
600000000000000000000000000000000008000000000000,
#BARLINEOFF
0, //11
#BARLINEON
1,
1,
22,
1,
1,
1,
22,
3, ///19
1,
11,
22,
3,
1,
22,
13,
13,
9,
09,
8,
#BARLINEOFF
0, //31
#BARLINEON
#GOGOSTART
1,
11,
2,
22,
1,
11,
22,
33, //39
1,
22,
1,
44,
1,
22,
11,
600000000000000000000008000000000000000000000000,
#GOGOEND
0,
44, //49
11,
22,
1,
11,
1,
22,
11,
33,
0, //58
#END