tja
This commit is contained in:
377
tja/1389.tja
Normal file
377
tja/1389.tja
Normal file
@@ -0,0 +1,377 @@
|
||||
//TJADB Project
|
||||
TITLE:Kimi to Idol Precure♪ Light Up!
|
||||
TITLEJA:キミとアイドルプリキュア♪ Light Up!
|
||||
SUBTITLE:--
|
||||
SUBTITLEJA:
|
||||
BPM:167
|
||||
WAVE:Kimi to Idol Precure Light Up.ogg
|
||||
OFFSET:-1.109
|
||||
DEMOSTART:53.726
|
||||
|
||||
|
||||
COURSE:Oni
|
||||
LEVEL:5
|
||||
BALLOON:
|
||||
SCOREINIT:2890
|
||||
SCOREDIFF:0
|
||||
|
||||
#START
|
||||
10102011,
|
||||
01012020,
|
||||
30304033,
|
||||
03034040,
|
||||
|
||||
30304033,
|
||||
03034040,
|
||||
6,
|
||||
000000000000000000000000000000000000000000000008,
|
||||
0, //9
|
||||
|
||||
#GOGOSTART
|
||||
10120112,
|
||||
1011101000101000,
|
||||
1022201010102020,
|
||||
11220000,
|
||||
#GOGOEND
|
||||
|
||||
1010002011102000,
|
||||
1010201000222000,
|
||||
11211020,
|
||||
34030400,
|
||||
|
||||
1011101000404000,
|
||||
1011101000404000,
|
||||
10201122,
|
||||
10011020, //21
|
||||
|
||||
11201120,
|
||||
1011201000222000,
|
||||
11211010,
|
||||
30044000,
|
||||
|
||||
1011101000404000,
|
||||
1011101000404000,
|
||||
1110100011102000,
|
||||
40400440, //29
|
||||
|
||||
20002222,
|
||||
2212,
|
||||
10002222,
|
||||
2211,
|
||||
|
||||
20102111,
|
||||
21111122,
|
||||
33304330,
|
||||
4030403000222000, //37
|
||||
|
||||
#GOGOSTART
|
||||
1000201000112010,
|
||||
10400121,
|
||||
1000201000112010,
|
||||
10401122,
|
||||
|
||||
10201121,
|
||||
10201121,
|
||||
0010102210100010,
|
||||
0010102020112020, //45
|
||||
|
||||
1000201000112010,
|
||||
10400121,
|
||||
1000201000112010,
|
||||
10401122,
|
||||
|
||||
10201121,
|
||||
10201121,
|
||||
01201125,
|
||||
000000000000000000000008000000000000000000000000, //53
|
||||
|
||||
12101211,
|
||||
12102212,
|
||||
12101211,
|
||||
2010201011201000,
|
||||
|
||||
12101211,
|
||||
12102212,
|
||||
1022202010102010,
|
||||
3430,
|
||||
#GOGOEND
|
||||
|
||||
0,
|
||||
0, //63
|
||||
#END
|
||||
|
||||
|
||||
COURSE:Hard
|
||||
LEVEL:3
|
||||
BALLOON:15
|
||||
SCOREINIT:4010
|
||||
SCOREDIFF:0
|
||||
|
||||
#START
|
||||
10102011,
|
||||
01011020,
|
||||
30304033,
|
||||
03033040,
|
||||
|
||||
30304033,
|
||||
03033040,
|
||||
9,
|
||||
09,
|
||||
8, //9
|
||||
|
||||
#GOGOSTART
|
||||
10110110,
|
||||
10020020,
|
||||
10011010,
|
||||
10110000,
|
||||
#GOGOEND
|
||||
|
||||
10011010,
|
||||
10110000,
|
||||
10111010,
|
||||
34030000,
|
||||
|
||||
10110440,
|
||||
10110440,
|
||||
10201110,
|
||||
10011000, //21
|
||||
|
||||
10101110,
|
||||
10110000,
|
||||
10111010,
|
||||
30044000,
|
||||
|
||||
10110440,
|
||||
10110440,
|
||||
1122,
|
||||
40400440, //29
|
||||
|
||||
20002220,
|
||||
2220,
|
||||
20002220,
|
||||
2220,
|
||||
|
||||
2121,
|
||||
20102220,
|
||||
33303330,
|
||||
43430020, //37
|
||||
|
||||
#GOGOSTART
|
||||
10200110,
|
||||
10400110,
|
||||
10200110,
|
||||
10401120,
|
||||
|
||||
10201120,
|
||||
10201120,
|
||||
11101101,
|
||||
01101020, //45
|
||||
|
||||
10200110,
|
||||
10400110,
|
||||
10200110,
|
||||
10401120,
|
||||
|
||||
10201120,
|
||||
10201120,
|
||||
10201105,
|
||||
000000000000000000000008000000000000000000000000, //53
|
||||
|
||||
10101110,
|
||||
10102220,
|
||||
10101110,
|
||||
10201110,
|
||||
|
||||
10101110,
|
||||
10102220,
|
||||
30403330,
|
||||
3430,
|
||||
#GOGOEND
|
||||
|
||||
0,
|
||||
0, //63
|
||||
#END
|
||||
|
||||
|
||||
COURSE:Normal
|
||||
LEVEL:2
|
||||
BALLOON:12,12
|
||||
SCOREINIT:7670
|
||||
SCOREDIFF:0
|
||||
|
||||
#START
|
||||
11,
|
||||
1,
|
||||
33,
|
||||
3,
|
||||
|
||||
33,
|
||||
3,
|
||||
9,
|
||||
09,
|
||||
8, //9
|
||||
|
||||
#GOGOSTART
|
||||
1001,
|
||||
1,
|
||||
2002,
|
||||
2,
|
||||
#GOGOEND
|
||||
|
||||
11,
|
||||
1100,
|
||||
11,
|
||||
30030000,
|
||||
|
||||
10110000,
|
||||
10110000,
|
||||
11,
|
||||
10011000, //21
|
||||
|
||||
11,
|
||||
1100,
|
||||
11,
|
||||
44,
|
||||
|
||||
10110000,
|
||||
10110000,
|
||||
11,
|
||||
4400, //29
|
||||
|
||||
22,
|
||||
2,
|
||||
22,
|
||||
2,
|
||||
|
||||
2121,
|
||||
2022,
|
||||
7,
|
||||
08, //37
|
||||
|
||||
#GOGOSTART
|
||||
1100,
|
||||
1400,
|
||||
1100,
|
||||
1400,
|
||||
|
||||
1202,
|
||||
1202,
|
||||
10101001,
|
||||
0, //45
|
||||
|
||||
1100,
|
||||
1400,
|
||||
1100,
|
||||
1400,
|
||||
|
||||
1202,
|
||||
1202,
|
||||
10101005,
|
||||
000000000000000000000008000000000000000000000000, //53
|
||||
|
||||
1111,
|
||||
1122,
|
||||
1111,
|
||||
10101110,
|
||||
|
||||
1111,
|
||||
1122,
|
||||
33,
|
||||
3430,
|
||||
#GOGOEND
|
||||
|
||||
0,
|
||||
0, //63
|
||||
#END
|
||||
|
||||
|
||||
COURSE:Easy
|
||||
LEVEL:1
|
||||
BALLOON:11,10
|
||||
SCOREINIT:18100
|
||||
SCOREDIFF:0
|
||||
|
||||
#START
|
||||
1,
|
||||
1,
|
||||
3,
|
||||
3,
|
||||
|
||||
3,
|
||||
3,
|
||||
9,
|
||||
09,
|
||||
8, //9
|
||||
|
||||
#GOGOSTART
|
||||
1,
|
||||
1,
|
||||
2,
|
||||
2,
|
||||
#GOGOEND
|
||||
|
||||
1,
|
||||
0,
|
||||
1,
|
||||
3,
|
||||
|
||||
1,
|
||||
1,
|
||||
1,
|
||||
4, //21
|
||||
|
||||
1,
|
||||
0,
|
||||
1,
|
||||
3,
|
||||
|
||||
1,
|
||||
1,
|
||||
1,
|
||||
4, //29
|
||||
|
||||
2,
|
||||
0,
|
||||
2,
|
||||
0,
|
||||
|
||||
2,
|
||||
22,
|
||||
7,
|
||||
08, //37
|
||||
|
||||
#GOGOSTART
|
||||
11,
|
||||
1,
|
||||
11,
|
||||
1,
|
||||
|
||||
1,
|
||||
1,
|
||||
5,
|
||||
000000000008000000000000000000000000000000000000, //45
|
||||
|
||||
11,
|
||||
1,
|
||||
11,
|
||||
1,
|
||||
|
||||
1,
|
||||
1,
|
||||
5,
|
||||
000000000000000000000008000000000000000000000000, //53
|
||||
|
||||
1,
|
||||
1,
|
||||
1,
|
||||
1,
|
||||
|
||||
1,
|
||||
1,
|
||||
3,
|
||||
3330,
|
||||
#GOGOEND
|
||||
|
||||
0,
|
||||
0, //63
|
||||
#END
|
||||
Reference in New Issue
Block a user