This commit is contained in:
2026-03-04 23:59:27 +09:00
parent 6e0312f5b4
commit 4b4e2b8c98
1128 changed files with 668765 additions and 0 deletions

810
tja/1395.tja Normal file
View File

@@ -0,0 +1,810 @@
//TJADB Project
TITLE:The Highway No.205 [SSS]
TITLEJA:潮騒205号SSS線
SUBTITLE:--TAKIO
SUBTITLEJA:TAKIO
BPM:200
WAVE:The Highway No205 SSS.ogg
OFFSET:-0.841
DEMOSTART:21.840
COURSE:Oni
LEVEL:10
BALLOON:
SCOREINIT:1080
SCOREDIFF:0
#START
00221022,
0020202010002222,
00221022,
0020202010002222,
10221022,
0020202010002222,
10221021,
0,
#MEASURE 3/4
300300302112,
103021122000, //10
#MEASURE 4/4
1010221010112010,
0011221210102010,
000000100100200000200200100000101010200000100000,
0011202210202210,
0010221010112010,
0011221212112000,
500008000000200200200200200000000000200000300000,
03030000, //18
1122100000112211,
#MEASURE 3/4
201211211210,
#MEASURE 4/4
1122100000112211,
#MEASURE 3/4
201211222210,
#MEASURE 4/4
1122100000112211,
#MEASURE 3/4
200010001000200000200100100200100000,
#MEASURE 4/4
1122100000112211,
#MEASURE 3/4
212011222210, //26
#MEASURE 4/4
1122100000112211,
#MEASURE 3/4
221211211210,
#MEASURE 4/4
1122100000112211,
2212122122122122,
#MEASURE 2/4
02,
#MEASURE 4/4
1122100000112211,
#MEASURE 3/4
221211211210,
#MEASURE 4/4
1122100000112211,
200100100200100000000000200200200200500008000000, //35
1000001220102010,
000000102020100000200000200010001000200010001000,
100100200200100010002000200000100000102000100000,
0122211122111010,
200100200200121200200100,
200000200000102010200000200000100200000200100100,
2020102210102020,
0000002020112010, //43
#GOGOSTART
1001201000102022,
1001201122102012,
1001201000102012,
2210201122102012,
1001201022112020,
100000101010200010200000000000100000200000100200,
1001201000102030,
0010201122102210, //51
#GOGOEND
100000101010
#GOGOSTART
200000100000200000100000200000200200,
1001201122102012,
1001201020102010,
2010201202102030,
0010201122102030,
0010201122121030,
0010202211202211,
2012012211112000, //59
#GOGOEND
1111,
10101210,
20101211,
1020101110101000,
1000100010221020,
1020102210201000,
1020102210201020,
000000221111, //67
#MEASURE 3/4
100300302222,
103022112211,
2440,
400400222010200000,
300000003000000030000000200200200200,
103022112211,
#MEASURE 4/4
20030040,
0, //75
1000001220102010,
000122100200201010201010,
100100200200100010002000200000100000102000100000,
000100221100102020201010,
21221221,
200200100111200020002000,
2020112020112020,
200000100000200000100200000200100000200000101010,
13033033,
#MEASURE 2/4
0,
#MEASURE 4/4
0, //86
2,
2,
2,
2,
220000000000000000000000,
220000000000000000100000,
30000404,
000000101010200000100100200000002000000020000000, //94
100000101010
#GOGOSTART
200000100000200000100000200000200200,
1001201122102012,
1001201020102010,
01010103,
0010201122102030,
000000101010200000200000100200100100200000600000,
0,
0,
000000000000000000000008000000000000000000000000,
0000000000102210, //104
0011202012102010,
0011221110102020,
1222122212211020,
000000102020200000102020200000100200200000000000,
1010221010112010,
0011221210102010,
000000100100200000200200100000101010200000100000,
0011202210202210,
0010221010112010,
0011221212112000, //114
#GOGOEND
500008000000200200200200200000000000200000300000,
0
#SCROLL 1.15
30
#SCROLL 1.32
30
#SCROLL 1.52
30
#SCROLL 1.75
3,
#SCROLL 1.25
0
#SCROLL 2.01
30
#SCROLL 2.31
30
#SCROLL 2.66
30
#SCROLL 3.06
3,
#MEASURE 2/4
#SCROLL 1.5
0, //118
#MEASURE 4/4
#SCROLL 2
4,
#SCROLL 2.5
0,
#SCROLL 3
0,
#SCROLL 3.5
0,
#SCROLL 4
0,
#SCROLL 4.5
0,
#SCROLL 5
0, //125
#END
COURSE:Hard
LEVEL:8
BALLOON:
SCOREINIT:1810
SCOREDIFF:0
#START
02,
00002022,
02,
00002022,
12,
00002022,
10002021,
0,
#MEASURE 3/4
3330,
330000, //10
#MEASURE 4/4
11211121,
0011101010102010,
02211121,
01201122,
01211121,
0011101010102000,
10000003,
03030000, //18
1111100000102010,
#MEASURE 3/4
112120,
#MEASURE 4/4
1111100000102010,
#MEASURE 3/4
112120,
#MEASURE 4/4
1111100000102010,
#MEASURE 3/4
112120,
#MEASURE 4/4
1111100000102010,
#MEASURE 3/4
144, //26
#MEASURE 4/4
1111100000201020,
#MEASURE 3/4
121210,
#MEASURE 4/4
1111100000201020,
1020300300300300,
#MEASURE 2/4
0,
#MEASURE 4/4
1111100000201020,
#MEASURE 3/4
100200201000,
#MEASURE 4/4
1111100000201020,
11200000, //35
1000001110102010,
0022202010001000,
10102121,
000500000000000000000000000000000008000000000000,
11211211,
2010102010010010,
500000000000000000000000000000000000000000000008,
00011221, //43
#GOGOSTART
10210121,
1000201110102010,
10210121,
1000201110102010,
10211122,
0022222000102010,
10210123,
0000201110102010, //51
#GOGOEND
10
#GOGOSTART
210121,
1000201110102010,
10212121,
21212123,
01212123,
01212113,
01250000,
000000000000000000000000000000000008000000000000, //59
#GOGOEND
1111,
10101210,
20101211,
12111110,
10101212,
12121210,
12121212,
0, //67
#MEASURE 3/4
3330,
330000,
4440,
440000,
300030003000000000,
330000,
#MEASURE 4/4
40030040,
0, //75
1000001110102020,
0022202020001000,
10102121,
0010222010001000,
20020020,
000200000000100010001000,
5,
000000000000000000000000000000000008000000000000,
33033033,
#MEASURE 2/4
0,
#MEASURE 4/4
0, //86
2,
2,
2,
2,
4,
4,
30000404,
000111, //94
10
#GOGOSTART
210121,
1000201110102010,
10212121,
01010103,
01212123,
0010222022202060,
0,
0,
000000000000000000000008000000000000000000000000,
00000121, //104
0010201011102010,
01210012,
1110111020102010,
0010222022202000,
11211121,
0011101010102010,
02211121,
01201122,
01211121,
0011101010102000, //114
#GOGOEND
10000003,
03030303,
03030303,
#MEASURE 2/4
0, //118
#MEASURE 4/4
4,
0,
0,
0,
0,
0,
0, //125
#END
COURSE:Normal
LEVEL:7
BALLOON:30
SCOREINIT:2640
SCOREDIFF:0
#START
02,
02,
02,
02,
12,
02,
10002001,
0,
#MEASURE 3/4
3330,
330000, //10
#MEASURE 4/4
10201122,
01201122,
01201125,
000000000000000000000008000000000000000000100000,
01201122,
01201120,
00000003,
03030000, //18
11100110,
#MEASURE 3/4
111110,
#MEASURE 4/4
11100110,
#MEASURE 3/4
111110,
#MEASURE 4/4
11100110,
#MEASURE 3/4
111110,
#MEASURE 4/4
11100110,
#MEASURE 3/4
244, //26
#MEASURE 4/4
11100110,
#MEASURE 3/4
111110,
#MEASURE 4/4
11100110,
1000300300300300,
#MEASURE 2/4
0,
#MEASURE 4/4
11100110,
#MEASURE 3/4
500000000000000000000008000000000000,
#MEASURE 4/4
11100110,
22200000, //35
10011221,
01122010,
10102211,
000500000000000000000000000000000008000000000000,
11011022,
0020200010010010,
500000000000000000000000000000000000000000000008,
00011221, //43
#GOGOSTART
10210201,
00011221,
10210201,
00010112,
20011222,
02220221,
10210203,
00011221, //51
#GOGOEND
10
#GOGOSTART
210201,
00011221,
10210201,
02010203,
00001203,
00020025,
0,
000000000000000000000000000000000008000000000000, //59
#GOGOEND
11,
10001210,
10001210,
10101110,
1111,
1111,
1111,
0, //67
#MEASURE 3/4
3330,
330000,
4440,
440000,
300030003000000000,
330000,
#MEASURE 4/4
40030040,
0, //75
10011221,
01122010,
10101122,
000000500000000000000000000000000008000000000000,
20020020,
000200000000100010001000,
5,
000000000000000000000000000000000008000000000000,
33033033,
#MEASURE 2/4
0,
#MEASURE 4/4
0, //86
2,
2,
2,
2,
4,
4,
30000404,
000111, //94
10
#GOGOSTART
210201,
00011221,
10210201,
02010203,
09,
0,
0,
09,
08,
00000121, //104
01201122,
01210012,
5,
000000000000000000000000000000000008000000000000,
10201122,
01201122,
01201125,
000000000000000000000000000008000000000000100000,
01201122,
01201120, //114
#GOGOEND
00000003,
03030303,
03030303,
#MEASURE 2/4
0, //118
#MEASURE 4/4
4,
0,
0,
0,
0,
0,
0, //125
#END
COURSE:Easy
LEVEL:5
BALLOON:10,10,24
SCOREINIT:4390
SCOREDIFF:0
#START
02,
02,
02,
02,
02,
02,
02,
0,
#MEASURE 3/4
3330,
330000, //10
#MEASURE 4/4
10101001,
00001005,
0,
000000000000000000000008000000000000000000100000,
00101001,
0022,
00000003,
03030000, //18
11100100,
#MEASURE 3/4
1,
#MEASURE 4/4
11100100,
#MEASURE 3/4
1,
#MEASURE 4/4
11100100,
#MEASURE 3/4
1,
#MEASURE 4/4
11100100,
#MEASURE 3/4
110, //26
#MEASURE 4/4
11100100,
#MEASURE 3/4
1,
#MEASURE 4/4
11100100,
1000300300300300,
#MEASURE 2/4
0,
#MEASURE 4/4
11100100,
#MEASURE 3/4
1,
#MEASURE 4/4
11100100,
2200, //35
7,
08,
10001001,
0110,
11011011,
01105000,
000000000000000000000000000000000000000000000008,
0, //43
#GOGOSTART
10110101,
00020000,
10110101,
00020000,
10050000,
000000000000000000000008000000000000000000000000,
10110404,
0, //51
#GOGOEND
10
#GOGOSTART
110101,
00020000,
10110101,
01010103,
00002204,
00050000,
0,
000000000000000000000000000008000000000000000000, //59
#GOGOEND
11,
11,
11,
11,
1111,
1111,
1111,
0, //67
#MEASURE 3/4
3330,
330000,
4440,
440000,
300030003000000000,
330000,
#MEASURE 4/4
40030040,
0, //75
7,
08,
10001001,
0110,
20020020,
02005000,
0,
000000000000000000000000000008000000000000000000,
33033033,
#MEASURE 2/4
0,
#MEASURE 4/4
0, //86
2,
2,
2,
2,
4,
4,
30000404,
0, //94
10
#GOGOSTART
110101,
00020000,
10110101,
01010103,
09,
0,
0,
09,
08,
00000101, //104
01001000,
01000010,
5,
000000000000000000000000000008000000000000000000,
10101001,
00001005,
0,
000000000000000000000008000000000000000000100000,
00101001,
0022, //114
#GOGOEND
00000003,
03030303,
03030303,
#MEASURE 2/4
0, //118
#MEASURE 4/4
4,
0,
0,
0,
0,
0,
0, //125
#END