This commit is contained in:
2026-03-04 23:59:27 +09:00
parent 6e0312f5b4
commit 4b4e2b8c98
1128 changed files with 668765 additions and 0 deletions

494
tja/1403.tja Normal file
View File

@@ -0,0 +1,494 @@
//TJADB Project
TITLE:UNBIAS
TITLEJA:UNBIAS
SUBTITLE:--Masayoshi Iimori feat. mezz, HAKU / WADIVE RECORD
SUBTITLEJA:Masayoshi Iimori feat. mezz, HAKU / WADIVE RECORD
BPM:160
WAVE:UNBIAS.ogg
OFFSET:-2.480
DEMOSTART:72.227
//shinuchi: 6250/4050/2520/1610
COURSE:Oni
LEVEL:8
BALLOON:9
SCOREINIT:540,1720
SCOREDIFF:133
#START
0,
0,
0,
1022,
0120,
1022,
3000000020120210, //7
1000102010012010,
1010201010011010,
1000102010012010,
1010102010111010,
1000102010012010,
1010201010011010,
6,
000000000000000000000008000000000000000000000000, //15
100221202102,
112100221200,
100221202102,
112100221200,
100222200111,
100000202020200000100100,
6,
000000000000000008000000200000200000200000000000, //23
10002222,
20220202,
12002222,
20222202,
100222202222,
200202202222,
200222200200,
200020002000200000000000200000100000100100100000, //31
10121121,
1022200010111010,
10121121,
1022200010111010,
1022201010111010,
1022201010111010,
1110111011111110,
30304440, //39
3002202020021020,
2020202020002021,
#GOGOSTART
1002102010021020,
1111102010002021,
1000122210001222,
100000000000200200200000100010001000200020002000,
100000000000100000100100200000200200100010001000,
500000000008000000000000400000400000400000000000, //47
3000000040021020,
1212101040202021,
1000222040021020,
1212101040202021,
1000222220001111,
100000000000200200200000100010001000200020002000,
11114011,
1010202040112010, //55
#GOGOEND
1002102010102010,
1022200010021010,
11121121,
1022200010121010,
2011102011102010,
2011102011102010,
1110111011111110,
30304440, //63
2000200020022020,
22222340,
#GOGOSTART
1000102010011010,
1122102010202020,
1000122210001222,
100000000000100200200000100020002000100020002000,
700000000000000000000000000008000000400000400000,
0211
#GOGOEND
4000, //71
#GOGOSTART
3000000010021020,
1122102010222021,
1002102010021020,
1122102010222021,
1020112210201122,
1020112210104000,
11114011,
1010202040112010, //79
#GOGOEND
32,
02,
02,
02,
0, //84
#END
COURSE:Hard
LEVEL:5
BALLOON:11,11,7
SCOREINIT:600,2830
SCOREDIFF:155
#START
0,
0,
0,
12,
0120,
12,
32, //7
10211010,
10111000,
10211010,
10112000,
10211010,
10111000,
6,
000000000000000000000008000000000000000000000000, //15
1221,
111100200200,
1221,
111100200000,
1221,
100111100100,
6,
000000000000000000000008000000000000000000000000, //23
1022,
20220202,
02002020,
20220202,
1222,
200222200200,
2222,
222200200100, //31
10111010,
12201011,
10111010,
12201011,
12201011,
12203333,
9009,
8, //39
30002022,
22202000,
#GOGOSTART
10121012,
11101022,
10111011,
100100111100,
100200222200,
10004440, //47
30004012,
11104021,
10114012,
11104021,
10222011,
100100111100,
11104011,
10224020, //55
#GOGOEND
10111010,
12201010,
10111010,
12201110,
22112210,
44334430,
9009,
8, //63
20002022,
22202030,
#GOGOSTART
10101011,
11102222,
10111011,
100000100100101010100000,
700000000000000000000000000008000000400000400000,
0110
#GOGOEND
4000, //71
#GOGOSTART
30001012,
11102222,
10111212,
11102222,
10111211,
12111140,
11104011,
10224020, //79
#GOGOEND
32,
02,
02,
02,
0, //84
#END
COURSE:Normal
LEVEL:4
BALLOON:7,7,5
SCOREINIT:710,4500
SCOREDIFF:208
#START
0,
0,
0,
1,
02,
1,
32, //7
11,
12,
11,
1200,
11,
12,
6,
000000000000000000000008000000000000000000000000, //15
1022,
1100,
1022,
1100,
1022,
1122,
6,
000000000000000000000008000000000000000000000000, //23
12,
20200002,
02,
20200002,
0022,
22,
2022,
22, //31
1110,
11100000,
1110,
11101010,
11101010,
33303030,
9009,
8, //39
3022,
22202000,
#GOGOSTART
1011,
11101000,
10111010,
10111010,
10111010,
12, //47
3021,
11102000,
1021,
11102000,
1221,
1220,
11100011,
10222000, //55
#GOGOEND
1111,
11100000,
1111,
11101010,
11101010,
33303030,
9009,
8, //63
2022,
22202000,
#GOGOSTART
1011,
11101000,
1011,
1111,
700000000000000000000000000008000000400000000000,
01
#GOGOEND
40, //71
#GOGOSTART
3011,
11102020,
1011,
11102020,
1011,
1114,
11100011,
10222020, //79
#GOGOEND
3,
0,
0,
0,
0, //84
#END
COURSE:Easy
LEVEL:3
BALLOON:6,6,4
SCOREINIT:670,6970
SCOREDIFF:243
#START
0,
0,
0,
1,
0,
1,
3, //7
1,
2,
1,
2,
1,
22,
6,
000000000000000000000008000000000000000000000000, //15
1,
1100,
1,
1100,
1,
1110,
6,
000000000000000000000008000000000000000000000000, //23
1,
20000002,
0,
20000002,
02,
2,
22,
22, //31
11,
1100,
11,
1110,
1110,
3330,
9009,
8, //39
32,
2220,
#GOGOSTART
12,
1110,
1110,
2220,
1110,
2, //47
32,
1110,
12,
1110,
1110,
2220,
1101,
12, //55
#GOGOEND
11,
1100,
11,
1110,
1110,
3330,
9009,
8, //63
22,
2220,
#GOGOSTART
11,
1110,
1011,
1110,
700000000000000000000000000008000000000000000000,
0
#GOGOEND
4, //71
#GOGOSTART
3011,
1110,
1011,
1110,
1011,
1110,
1101,
12, //79
#GOGOEND
3,
0,
0,
0,
0, //84
#END