tja
This commit is contained in:
398
tja/1410.tja
Normal file
398
tja/1410.tja
Normal file
@@ -0,0 +1,398 @@
|
||||
//TJADB Project
|
||||
TITLE:WINNER! Gozyuger!
|
||||
TITLEJA:WINNER!ゴジュウジャー!
|
||||
SUBTITLE:--No.1 Sentai Gozyuger
|
||||
SUBTITLEJA:「ナンバーワン戦隊ゴジュウジャー」より
|
||||
BPM:190
|
||||
WAVE:WINNER! Gozyuger!.ogg
|
||||
OFFSET:-0.821
|
||||
DEMOSTART:60.961
|
||||
|
||||
//Shinuchi: 12700/6930/3460/2100
|
||||
|
||||
COURSE:Oni
|
||||
LEVEL:6
|
||||
BALLOON:
|
||||
SCOREINIT:620,2300
|
||||
SCOREDIFF:173
|
||||
|
||||
#START
|
||||
30223320,
|
||||
10110220,
|
||||
30223320,
|
||||
10110220,
|
||||
|
||||
30223320,
|
||||
10110220,
|
||||
30223320,
|
||||
10002203, //8
|
||||
|
||||
0011102010200010,
|
||||
0011102011102010,
|
||||
0011102010200010,
|
||||
0022202011102010,
|
||||
|
||||
0011102010200010,
|
||||
0011102011102010,
|
||||
0011102010200050,
|
||||
000000000000000008000000200000000000200000000000, //16
|
||||
|
||||
11011022,
|
||||
10111020,
|
||||
11011022,
|
||||
11211020,
|
||||
|
||||
11011020,
|
||||
10111020,
|
||||
30304403,
|
||||
0030004040111000, //24
|
||||
|
||||
11211021,
|
||||
1000201011102000,
|
||||
11201121,
|
||||
1000201011102000,
|
||||
|
||||
11211021,
|
||||
1000201022202010,
|
||||
30304403,
|
||||
03044120, //32
|
||||
|
||||
10212020,
|
||||
1110201020001000,
|
||||
12012212,
|
||||
1110201020001020,
|
||||
|
||||
1002002010020020,
|
||||
1002002010002020,
|
||||
12121212,
|
||||
1110201022202000, //40
|
||||
|
||||
1020102011102000,
|
||||
12121021,
|
||||
1020102011102000,
|
||||
12121030,
|
||||
|
||||
30220030,
|
||||
30220030,
|
||||
1000222010001060,
|
||||
000000000000000008000000000000000000000000000000, //48
|
||||
|
||||
#GOGOSTART
|
||||
1020102011102020,
|
||||
12123021,
|
||||
1110200011102010,
|
||||
1110201020001000,
|
||||
|
||||
1020102011102020,
|
||||
12123021,
|
||||
1110201011102010,
|
||||
1110202020001000, //56
|
||||
|
||||
1020102011102020,
|
||||
12123021,
|
||||
1110201011102010,
|
||||
1110201020002020,
|
||||
|
||||
1110202011102020,
|
||||
30221212,
|
||||
1000102011102000,
|
||||
10033060, //64
|
||||
|
||||
0,
|
||||
000000000000000000000000000000000008000000100000,
|
||||
0011102010102030,
|
||||
0000000111000000,
|
||||
#GOGOEND
|
||||
0, //69
|
||||
#END
|
||||
|
||||
|
||||
COURSE:Hard
|
||||
LEVEL:3
|
||||
BALLOON:10,22
|
||||
SCOREINIT:710,4260
|
||||
SCOREDIFF:225
|
||||
|
||||
#START
|
||||
30003300,
|
||||
10110000,
|
||||
30003300,
|
||||
10110000,
|
||||
|
||||
30003300,
|
||||
10110000,
|
||||
30003300,
|
||||
00000001, //8
|
||||
|
||||
00101101,
|
||||
00202201,
|
||||
00101101,
|
||||
00202201,
|
||||
|
||||
00101101,
|
||||
00202201,
|
||||
00101105,
|
||||
000000000000000000000008000000000000000000000000, //16
|
||||
|
||||
11,
|
||||
1122,
|
||||
11,
|
||||
1122,
|
||||
|
||||
11,
|
||||
10111000,
|
||||
30303304,
|
||||
04044000, //24
|
||||
|
||||
1012,
|
||||
10111020,
|
||||
1012,
|
||||
10111020,
|
||||
|
||||
1012,
|
||||
10111020,
|
||||
30303304,
|
||||
04044000, //32
|
||||
|
||||
1122,
|
||||
10222000,
|
||||
11011020,
|
||||
11102000,
|
||||
|
||||
1001000020020000,
|
||||
1001000020000000,
|
||||
11102220,
|
||||
10222000, //40
|
||||
|
||||
1212,
|
||||
10221000,
|
||||
1212,
|
||||
11201030,
|
||||
|
||||
30220030,
|
||||
30220030,
|
||||
900000000000000000000000000000000009000000000008,
|
||||
0, //48
|
||||
|
||||
#GOGOSTART
|
||||
10101022,
|
||||
3330,
|
||||
11101011,
|
||||
1120,
|
||||
|
||||
10101022,
|
||||
3330,
|
||||
11011020,
|
||||
10222000, //56
|
||||
|
||||
10101022,
|
||||
3330,
|
||||
11011020,
|
||||
10112000,
|
||||
|
||||
3434,
|
||||
30111020,
|
||||
1122,
|
||||
10033090, //64
|
||||
|
||||
0,
|
||||
0908,
|
||||
0,
|
||||
0000000003000000,
|
||||
#GOGOEND
|
||||
0, //69
|
||||
#END
|
||||
|
||||
|
||||
COURSE:Normal
|
||||
LEVEL:2
|
||||
BALLOON:6,10,10,6,13
|
||||
SCOREINIT:1000,8890
|
||||
SCOREDIFF:463
|
||||
|
||||
#START
|
||||
33,
|
||||
1,
|
||||
33,
|
||||
1,
|
||||
|
||||
33,
|
||||
1,
|
||||
700000000000000000000000000000000000000000000008,
|
||||
00000001, //8
|
||||
|
||||
00001001,
|
||||
00000001,
|
||||
00001001,
|
||||
00000001,
|
||||
|
||||
00001001,
|
||||
00000001,
|
||||
00001005,
|
||||
000000000000000000000008000000000000000000000000, //16
|
||||
|
||||
1,
|
||||
1,
|
||||
1,
|
||||
1,
|
||||
|
||||
11,
|
||||
11,
|
||||
7,
|
||||
08, //24
|
||||
|
||||
11,
|
||||
1,
|
||||
11,
|
||||
1,
|
||||
|
||||
1011,
|
||||
11,
|
||||
7,
|
||||
08, //32
|
||||
|
||||
22,
|
||||
2,
|
||||
22,
|
||||
2,
|
||||
|
||||
22,
|
||||
22,
|
||||
2220,
|
||||
2, //40
|
||||
|
||||
12,
|
||||
1110,
|
||||
12,
|
||||
1003,
|
||||
|
||||
3003,
|
||||
3003,
|
||||
900000000000000000000000000000000009000000000008,
|
||||
0, //48
|
||||
|
||||
#GOGOSTART
|
||||
1110,
|
||||
3330,
|
||||
22,
|
||||
2220,
|
||||
|
||||
1110,
|
||||
3330,
|
||||
22,
|
||||
2220, //56
|
||||
|
||||
1110,
|
||||
3330,
|
||||
22,
|
||||
2220,
|
||||
|
||||
3434,
|
||||
31,
|
||||
1111,
|
||||
1039, //64
|
||||
|
||||
0,
|
||||
0908,
|
||||
0,
|
||||
0000000003000000,
|
||||
#GOGOEND
|
||||
0, //69
|
||||
#END
|
||||
|
||||
|
||||
COURSE:Easy
|
||||
LEVEL:2
|
||||
BALLOON:5,8,8,5,10
|
||||
SCOREINIT:1310,15570
|
||||
SCOREDIFF:1110
|
||||
|
||||
#START
|
||||
33,
|
||||
0,
|
||||
33,
|
||||
0,
|
||||
|
||||
33,
|
||||
0,
|
||||
700000000000000000000000000000000000000000000008,
|
||||
00000001, //8
|
||||
|
||||
00000001,
|
||||
00000001,
|
||||
0,
|
||||
00000001,
|
||||
|
||||
00000001,
|
||||
00000001,
|
||||
00000005,
|
||||
000000000000000008000000000000000000000000000000, //16
|
||||
|
||||
1,
|
||||
0,
|
||||
1,
|
||||
0,
|
||||
|
||||
1,
|
||||
1,
|
||||
7,
|
||||
08, //24
|
||||
|
||||
1,
|
||||
11,
|
||||
1,
|
||||
11,
|
||||
|
||||
1,
|
||||
11,
|
||||
7,
|
||||
08, //32
|
||||
|
||||
2,
|
||||
0,
|
||||
2,
|
||||
0,
|
||||
|
||||
2,
|
||||
2,
|
||||
22,
|
||||
2, //40
|
||||
|
||||
1,
|
||||
1,
|
||||
11,
|
||||
1,
|
||||
|
||||
3,
|
||||
3,
|
||||
900000000000000000000000000000000009000000000008,
|
||||
0, //48
|
||||
|
||||
#GOGOSTART
|
||||
11,
|
||||
1,
|
||||
11,
|
||||
1,
|
||||
|
||||
11,
|
||||
1,
|
||||
22,
|
||||
2, //56
|
||||
|
||||
11,
|
||||
1,
|
||||
11,
|
||||
1,
|
||||
|
||||
33,
|
||||
3,
|
||||
11,
|
||||
1009, //64
|
||||
|
||||
0,
|
||||
0908,
|
||||
0,
|
||||
0000000003000000,
|
||||
#GOGOEND
|
||||
0, //69
|
||||
#END
|
||||
Reference in New Issue
Block a user