tja
This commit is contained in:
898
tja/1412.tja
Normal file
898
tja/1412.tja
Normal file
@@ -0,0 +1,898 @@
|
||||
//TJADB Project
|
||||
TITLE:Kakashi-Hime: Princess Scarecrow
|
||||
TITLEJA:案山子姫 -Princess Scarecrow-
|
||||
SUBTITLE:--Harunaba feat. Chihiro Ishiguro
|
||||
SUBTITLEJA:はるなば feat. 石黒千尋
|
||||
BPM:125
|
||||
WAVE:Kakashi Hime Princess Scarecrow.ogg
|
||||
OFFSET:-1.475
|
||||
DEMOSTART:55.217
|
||||
|
||||
COURSE:Edit
|
||||
LEVEL:10
|
||||
BALLOON:
|
||||
SCOREINIT:1010
|
||||
SCOREDIFF:0
|
||||
|
||||
#START
|
||||
220000000000200000200000000000200000200000200000,
|
||||
220000000000200000200000000000200000200000200000,
|
||||
500000000000000000000000000000000000000000000008,
|
||||
#MEASURE 2/4
|
||||
0,
|
||||
|
||||
#MEASURE 4/4
|
||||
#BPMCHANGE 250
|
||||
#SCROLL 0.75
|
||||
300010012010,
|
||||
201122112211,
|
||||
212010300011,
|
||||
112103,
|
||||
001121121120, //9
|
||||
|
||||
300010012010,
|
||||
201122112211,
|
||||
212010300011,
|
||||
212113,
|
||||
|
||||
001120111120,
|
||||
112000101010,
|
||||
100010003000000000
|
||||
#SCROLL 1
|
||||
111100,
|
||||
1020201020102222, //17
|
||||
|
||||
10201120,
|
||||
11210120,
|
||||
10201120,
|
||||
1111201111201040,
|
||||
|
||||
01201120,
|
||||
11210120,
|
||||
2110211021102110,
|
||||
2110100010001111, //25
|
||||
|
||||
11210121,
|
||||
100000100000200000500000000008000000200000000000,
|
||||
1010201022221020,
|
||||
1010222210201020,
|
||||
|
||||
10201120,
|
||||
11210120,
|
||||
10201120,
|
||||
1111201111201040,
|
||||
|
||||
01201120,
|
||||
11210120,
|
||||
2110211021102110,
|
||||
2110211021111111, //37
|
||||
|
||||
10010010,
|
||||
01030300,
|
||||
1110001110001110,
|
||||
0011103000300000,
|
||||
|
||||
1110201110201110,
|
||||
2011102030003000,
|
||||
1110111020201110,
|
||||
2011101110111110, //45
|
||||
|
||||
10211212,
|
||||
11212122,
|
||||
1111102011111020,
|
||||
21121120,
|
||||
|
||||
10220120,
|
||||
202120202120,
|
||||
3022203022203022,
|
||||
2030222030222220, //53
|
||||
|
||||
#GOGOSTART
|
||||
1010202220201010,
|
||||
2022202010102220,
|
||||
1110201110202030,
|
||||
0010201020102210,
|
||||
|
||||
1010202220201010,
|
||||
2022202010102220,
|
||||
1110201110102030,
|
||||
0022202022202020, //61
|
||||
|
||||
11211211,
|
||||
2010102010222020,
|
||||
11211211,
|
||||
2010102010222020,
|
||||
|
||||
1110201000102010,
|
||||
1110201110102010,
|
||||
1022201022201020,
|
||||
0010200011222220, //69
|
||||
|
||||
1010202220201010,
|
||||
2022202010102220,
|
||||
1110201110202030,
|
||||
0010201020102210,
|
||||
|
||||
1010202220201010,
|
||||
2022202010102220,
|
||||
1110201110102030,
|
||||
0022202022202020, //77
|
||||
|
||||
11211211,
|
||||
2010102010222020,
|
||||
1122201122201010,
|
||||
22202222,
|
||||
#GOGOEND
|
||||
|
||||
333
|
||||
#SCROLL 0.9
|
||||
033,
|
||||
30
|
||||
#SCROLL 0.82
|
||||
3330, //83
|
||||
|
||||
#SCROLL 0.75
|
||||
111110,
|
||||
201110202000,
|
||||
100022102011,
|
||||
111012101110,
|
||||
|
||||
102120101211,
|
||||
111210212210,
|
||||
101022021021,
|
||||
021012101111, //91
|
||||
|
||||
222220201211,
|
||||
210211212210,
|
||||
122121022121,
|
||||
201212221012,
|
||||
122212111010,
|
||||
100000001000100010001000200200200200200200200000, //97
|
||||
|
||||
#SCROLL 1
|
||||
3000201010102011,
|
||||
1010201010221020,
|
||||
10211121,
|
||||
1010200010102022,
|
||||
|
||||
10330303,
|
||||
01211122,
|
||||
11212112,
|
||||
1111201111202222, //105
|
||||
|
||||
1000201010102011,
|
||||
1010201010221020,
|
||||
10211121,
|
||||
1010200010102022,
|
||||
|
||||
10330303,
|
||||
01211122,
|
||||
1110201011102010,
|
||||
1111201111202000, //113
|
||||
|
||||
#GOGOSTART
|
||||
1110201110201111,
|
||||
1020111120002000,
|
||||
1111201111201111,
|
||||
1121111121112000,
|
||||
|
||||
33233233,
|
||||
23323333,
|
||||
#GOGOEND
|
||||
#BARLINEOFF
|
||||
0,
|
||||
|
||||
#BPMCHANGE 125
|
||||
002222000000000000000000,
|
||||
#BARLINEON
|
||||
0,
|
||||
0, //123
|
||||
#END
|
||||
|
||||
|
||||
COURSE:Oni
|
||||
LEVEL:8
|
||||
BALLOON:23,6
|
||||
SCOREINIT:1580
|
||||
SCOREDIFF:0
|
||||
|
||||
#START
|
||||
3,
|
||||
3,
|
||||
7,
|
||||
#MEASURE 2/4
|
||||
8,
|
||||
|
||||
#MEASURE 4/4
|
||||
#BPMCHANGE 250
|
||||
#SCROLL 0.75
|
||||
100020112010,
|
||||
201110201021,
|
||||
101020300022,
|
||||
211103,
|
||||
000040040040, //9
|
||||
|
||||
100020112010,
|
||||
201110201021,
|
||||
101020300022,
|
||||
211113,
|
||||
|
||||
000040001040,
|
||||
040111,
|
||||
114000,
|
||||
#SCROLL 1
|
||||
12212122, //17
|
||||
|
||||
10201120,
|
||||
11210120,
|
||||
11201121,
|
||||
01401404,
|
||||
|
||||
00201120,
|
||||
11210120,
|
||||
10201125,
|
||||
000000000000000000000000000000000000000008000000, //25
|
||||
|
||||
00300120,
|
||||
1010200011102000,
|
||||
11214012,
|
||||
11401404,
|
||||
|
||||
00201120,
|
||||
11210120,
|
||||
10201121,
|
||||
01401404,
|
||||
|
||||
00201120,
|
||||
11210120,
|
||||
10201125,
|
||||
000000000000000000000008000000000000000000000000, //37
|
||||
|
||||
10021202,
|
||||
12020220,
|
||||
10121201,
|
||||
21020220,
|
||||
|
||||
10211212,
|
||||
21011020,
|
||||
10221121,
|
||||
12010120, //45
|
||||
|
||||
1000111000101000,
|
||||
2000222000202000,
|
||||
10102210,
|
||||
21212120,
|
||||
|
||||
30221220,
|
||||
322122,
|
||||
3002003002003002,
|
||||
0030020030000000, //53
|
||||
|
||||
#GOGOSTART
|
||||
11120211,
|
||||
12021120,
|
||||
10130303,
|
||||
04404040,
|
||||
|
||||
11120211,
|
||||
12021120,
|
||||
10130303,
|
||||
04402020, //61
|
||||
|
||||
1110201000102010,
|
||||
02102120,
|
||||
1110201000102010,
|
||||
02102120,
|
||||
|
||||
500000000000000000000000000008000000000000000000,
|
||||
1111,
|
||||
21012102,
|
||||
0010200011101000, //69
|
||||
|
||||
11120211,
|
||||
12021120,
|
||||
10130303,
|
||||
04404040,
|
||||
|
||||
11120211,
|
||||
12021120,
|
||||
10130303,
|
||||
04402220, //77
|
||||
|
||||
10121101,
|
||||
02102120,
|
||||
20121010,
|
||||
21212120,
|
||||
#GOGOEND
|
||||
|
||||
500000000000000000000000000000000008000000000000,
|
||||
#SCROLL 0.75
|
||||
0, //83
|
||||
|
||||
112230,
|
||||
001110002000,
|
||||
100000111010,
|
||||
202030000011,
|
||||
|
||||
102210,
|
||||
001110000021,
|
||||
200000121000,
|
||||
200011111011, //91
|
||||
|
||||
112232,
|
||||
201110020020,
|
||||
302020111000,
|
||||
102220002011,
|
||||
102011111020,
|
||||
201110000000, //97
|
||||
|
||||
#SCROLL 1
|
||||
10210221,
|
||||
02101122,
|
||||
1110201000202010,
|
||||
10201112,
|
||||
|
||||
10140303,
|
||||
01010220,
|
||||
12101210,
|
||||
1000111000222000, //105
|
||||
|
||||
10210221,
|
||||
02101122,
|
||||
1110201000201010,
|
||||
20101122,
|
||||
|
||||
10230404,
|
||||
01010220,
|
||||
12101210,
|
||||
1110202000400000, //113
|
||||
|
||||
#GOGOSTART
|
||||
1110201010201010,
|
||||
02112120,
|
||||
1110201010201010,
|
||||
02112120,
|
||||
|
||||
33033033,
|
||||
03303333,
|
||||
#GOGOEND
|
||||
#BARLINEOFF
|
||||
0,
|
||||
|
||||
#BARLINEON
|
||||
#BPMCHANGE 125
|
||||
78,
|
||||
0,
|
||||
0, //123
|
||||
#END
|
||||
|
||||
|
||||
COURSE:Hard
|
||||
LEVEL:8
|
||||
BALLOON:16,10,5
|
||||
SCOREINIT:2240
|
||||
SCOREDIFF:0
|
||||
|
||||
#START
|
||||
3,
|
||||
3,
|
||||
9009,
|
||||
#MEASURE 2/4
|
||||
8,
|
||||
|
||||
#MEASURE 4/4
|
||||
#BPMCHANGE 250
|
||||
#SCROLL 0.75
|
||||
101011,
|
||||
010110,
|
||||
110301,
|
||||
111103,
|
||||
000040040040, //9
|
||||
|
||||
101011,
|
||||
010110,
|
||||
110301,
|
||||
111103,
|
||||
|
||||
004004,
|
||||
040111,
|
||||
114000,
|
||||
#SCROLL 1
|
||||
500000000000000000000000000008000000000000000000, //17
|
||||
|
||||
1212,
|
||||
11010200,
|
||||
10201011,
|
||||
01400404,
|
||||
|
||||
0212,
|
||||
11010200,
|
||||
10201115,
|
||||
000000000000000000000000000000000000000008000000, //25
|
||||
|
||||
0302,
|
||||
10101110,
|
||||
11104011,
|
||||
10400404,
|
||||
|
||||
0212,
|
||||
11010200,
|
||||
10201011,
|
||||
01400404,
|
||||
|
||||
0212,
|
||||
11010200,
|
||||
10201115,
|
||||
000000000000000000000008000000000000000000000000, //37
|
||||
|
||||
10022202,
|
||||
22020200,
|
||||
10022201,
|
||||
11020200,
|
||||
|
||||
10011101,
|
||||
11010010,
|
||||
10011102,
|
||||
22010000, //45
|
||||
|
||||
10110010,
|
||||
10110010,
|
||||
10101110,
|
||||
2222,
|
||||
|
||||
31,
|
||||
31,
|
||||
30030030,
|
||||
03003000, //53
|
||||
|
||||
#GOGOSTART
|
||||
11110011,
|
||||
11011020,
|
||||
10130303,
|
||||
0444,
|
||||
|
||||
11110011,
|
||||
11011020,
|
||||
10130303,
|
||||
0422, //61
|
||||
|
||||
10110111,
|
||||
00002220,
|
||||
10110111,
|
||||
01002020,
|
||||
|
||||
500000000000000000000000000008000000000000000000,
|
||||
1111,
|
||||
7,
|
||||
08, //69
|
||||
|
||||
11110011,
|
||||
11002020,
|
||||
10130303,
|
||||
0444,
|
||||
|
||||
11110011,
|
||||
11002020,
|
||||
10130303,
|
||||
00402220, //77
|
||||
|
||||
10001101,
|
||||
0022,
|
||||
1111,
|
||||
2222,
|
||||
#GOGOEND
|
||||
|
||||
500000000000000000000000000000000008000000000000,
|
||||
#SCROLL 0.75
|
||||
0, //83
|
||||
|
||||
111030,
|
||||
001110000000,
|
||||
100000111000,
|
||||
000030000011,
|
||||
|
||||
121,
|
||||
001110000022,
|
||||
200000111000,
|
||||
000010000011, //91
|
||||
|
||||
111030,
|
||||
001110020020,
|
||||
100000111000,
|
||||
002220000011,
|
||||
111010,
|
||||
001110000000, //97
|
||||
|
||||
#SCROLL 1
|
||||
10110101,
|
||||
00202220,
|
||||
10110110,
|
||||
10002220,
|
||||
|
||||
10130303,
|
||||
02020200,
|
||||
1111,
|
||||
10220200, //105
|
||||
|
||||
10110101,
|
||||
00202220,
|
||||
10110110,
|
||||
20001110,
|
||||
|
||||
10130303,
|
||||
02020200,
|
||||
1111,
|
||||
10200400, //113
|
||||
|
||||
#GOGOSTART
|
||||
10110111,
|
||||
02022010,
|
||||
10110111,
|
||||
02022010,
|
||||
|
||||
33033033,
|
||||
03303333,
|
||||
#GOGOEND
|
||||
#BARLINEOFF
|
||||
0,
|
||||
|
||||
#BARLINEON
|
||||
#BPMCHANGE 125
|
||||
78,
|
||||
0,
|
||||
0, //123
|
||||
#END
|
||||
|
||||
|
||||
COURSE:Normal
|
||||
LEVEL:7
|
||||
BALLOON:12,7,4
|
||||
SCOREINIT:4090
|
||||
SCOREDIFF:0
|
||||
|
||||
#START
|
||||
3,
|
||||
3,
|
||||
9009,
|
||||
#MEASURE 2/4
|
||||
8,
|
||||
|
||||
#MEASURE 4/4
|
||||
#BPMCHANGE 250
|
||||
#SCROLL 0.75
|
||||
111,
|
||||
010010,
|
||||
13,
|
||||
101103,
|
||||
0, //9
|
||||
|
||||
111,
|
||||
010010,
|
||||
13,
|
||||
101103,
|
||||
|
||||
004004,
|
||||
040011,
|
||||
104000,
|
||||
#SCROLL 1
|
||||
500000000000000000000000000008000000000000000000, //17
|
||||
|
||||
11,
|
||||
1,
|
||||
10001005,
|
||||
000000000000000000000008000000000000000000000000,
|
||||
|
||||
11,
|
||||
1,
|
||||
10001005,
|
||||
000000000000000000000000000000000000000008000000, //25
|
||||
|
||||
0300,
|
||||
1110,
|
||||
6,
|
||||
000000000000000000000000000000000000000008000000,
|
||||
|
||||
01,
|
||||
1,
|
||||
10001005,
|
||||
000000000000000000000008000000000000000000000000,
|
||||
|
||||
11,
|
||||
1,
|
||||
10001005,
|
||||
000000000000000000000008000000000000000000000000, //37
|
||||
|
||||
1,
|
||||
00020200,
|
||||
1,
|
||||
00020200,
|
||||
|
||||
12,
|
||||
10010000,
|
||||
12,
|
||||
10010000, //45
|
||||
|
||||
10010000,
|
||||
10010000,
|
||||
1110,
|
||||
2220,
|
||||
|
||||
31,
|
||||
31,
|
||||
6,
|
||||
000000000000000000000008000000000000000000000000, //53
|
||||
|
||||
#GOGOSTART
|
||||
10010010,
|
||||
01001010,
|
||||
10030303,
|
||||
0440,
|
||||
|
||||
10010010,
|
||||
01001010,
|
||||
10030303,
|
||||
0440, //61
|
||||
|
||||
10010101,
|
||||
02,
|
||||
10010101,
|
||||
02,
|
||||
|
||||
500000000000000000000000000008000000000000000000,
|
||||
1110,
|
||||
7,
|
||||
08, //69
|
||||
|
||||
10010010,
|
||||
01001010,
|
||||
10030303,
|
||||
0440,
|
||||
|
||||
10010010,
|
||||
01001010,
|
||||
10030303,
|
||||
0440, //77
|
||||
|
||||
10001001,
|
||||
02,
|
||||
1110,
|
||||
2220,
|
||||
#GOGOEND
|
||||
|
||||
500000000000000000000000000000000008000000000000,
|
||||
#SCROLL 0.75
|
||||
0, //83
|
||||
|
||||
103,
|
||||
010,
|
||||
101,
|
||||
003001,
|
||||
|
||||
121,
|
||||
011002,
|
||||
200110,
|
||||
010, //91
|
||||
|
||||
111030,
|
||||
000010020020,
|
||||
100110,
|
||||
022001,
|
||||
111,
|
||||
011000, //97
|
||||
|
||||
#SCROLL 1
|
||||
10010101,
|
||||
02,
|
||||
10010010,
|
||||
12,
|
||||
|
||||
10030303,
|
||||
02,
|
||||
1110,
|
||||
10020200, //105
|
||||
|
||||
10010101,
|
||||
02,
|
||||
10010010,
|
||||
12,
|
||||
|
||||
10030303,
|
||||
02,
|
||||
1110,
|
||||
10200400, //113
|
||||
|
||||
#GOGOSTART
|
||||
10010010,
|
||||
02001010,
|
||||
10010010,
|
||||
02001010,
|
||||
|
||||
6,
|
||||
000000000000000000000000000000000000000008000000,
|
||||
#GOGOEND
|
||||
#BARLINEOFF
|
||||
0,
|
||||
|
||||
#BARLINEON
|
||||
#BPMCHANGE 125
|
||||
78,
|
||||
0,
|
||||
0, //123
|
||||
#END
|
||||
|
||||
|
||||
COURSE:Easy
|
||||
LEVEL:5
|
||||
BALLOON:9,5,3
|
||||
SCOREINIT:7580
|
||||
SCOREDIFF:0
|
||||
|
||||
#START
|
||||
3,
|
||||
3,
|
||||
9009,
|
||||
#MEASURE 2/4
|
||||
8,
|
||||
|
||||
#MEASURE 4/4
|
||||
#BPMCHANGE 250
|
||||
#SCROLL 0.75
|
||||
101,
|
||||
010000,
|
||||
03,
|
||||
001003,
|
||||
0, //9
|
||||
|
||||
101,
|
||||
010000,
|
||||
13,
|
||||
001003,
|
||||
|
||||
0,
|
||||
001,
|
||||
140,
|
||||
#SCROLL 1
|
||||
500000000000000000000000000008000000000000000000, //17
|
||||
|
||||
1,
|
||||
1,
|
||||
10001005,
|
||||
000000000000000000000008000000000000000000000000,
|
||||
|
||||
1,
|
||||
1,
|
||||
10001005,
|
||||
000000000000000000000000000000000000000008000000, //25
|
||||
|
||||
0,
|
||||
1,
|
||||
6,
|
||||
000000000000000000000000000000000000000008000000,
|
||||
|
||||
0,
|
||||
1,
|
||||
10000005,
|
||||
000000000000000000000008000000000000000000000000,
|
||||
|
||||
1,
|
||||
1,
|
||||
10001005,
|
||||
000000000000000000000008000000000000000000000000, //37
|
||||
|
||||
2,
|
||||
0,
|
||||
2,
|
||||
0,
|
||||
|
||||
11,
|
||||
1,
|
||||
11,
|
||||
1, //45
|
||||
|
||||
1,
|
||||
2,
|
||||
11,
|
||||
22,
|
||||
|
||||
3,
|
||||
3,
|
||||
6,
|
||||
000000000000000000000008000000000000000000000000, //53
|
||||
|
||||
#GOGOSTART
|
||||
1001,
|
||||
01,
|
||||
10030303,
|
||||
0,
|
||||
|
||||
1001,
|
||||
01,
|
||||
10030303,
|
||||
0, //61
|
||||
|
||||
10000001,
|
||||
02,
|
||||
10000001,
|
||||
02,
|
||||
|
||||
500000000000000000000000000008000000000000000000,
|
||||
11,
|
||||
7,
|
||||
08, //69
|
||||
|
||||
1001,
|
||||
01,
|
||||
10030303,
|
||||
0,
|
||||
|
||||
1001,
|
||||
01,
|
||||
10030303,
|
||||
0, //77
|
||||
|
||||
10000001,
|
||||
0,
|
||||
11,
|
||||
2,
|
||||
#GOGOEND
|
||||
|
||||
500000000000000000000000000000000008000000000000,
|
||||
#SCROLL 0.75
|
||||
0, //83
|
||||
|
||||
103,
|
||||
0,
|
||||
1,
|
||||
030,
|
||||
|
||||
101,
|
||||
010,
|
||||
1,
|
||||
010, //91
|
||||
|
||||
003,
|
||||
010,
|
||||
101,
|
||||
010,
|
||||
001,
|
||||
0, //97
|
||||
|
||||
#SCROLL 1
|
||||
10000001,
|
||||
0,
|
||||
1,
|
||||
2,
|
||||
|
||||
10000003,
|
||||
0,
|
||||
11,
|
||||
1, //105
|
||||
|
||||
10000001,
|
||||
0,
|
||||
1,
|
||||
2,
|
||||
|
||||
10000003,
|
||||
0,
|
||||
11,
|
||||
1, //113
|
||||
|
||||
#GOGOSTART
|
||||
10010010,
|
||||
02,
|
||||
10010010,
|
||||
02,
|
||||
|
||||
6,
|
||||
000000000000000000000000000000000000000008000000,
|
||||
#GOGOEND
|
||||
#BARLINEOFF
|
||||
0,
|
||||
|
||||
#BARLINEON
|
||||
#BPMCHANGE 125
|
||||
78,
|
||||
0,
|
||||
0, //123
|
||||
#END
|
||||
Reference in New Issue
Block a user