tja
This commit is contained in:
599
tja/1414.tja
Normal file
599
tja/1414.tja
Normal file
@@ -0,0 +1,599 @@
|
||||
//TJADB Project
|
||||
TITLE:Keigetsu ~Twilight Laurel~
|
||||
TITLEJA:桂月
|
||||
SUBTITLE:--ZZAN Shin-way
|
||||
SUBTITLEJA:~Twilight Laurel~
|
||||
BPM:75
|
||||
WAVE:Keigetsu Twilight Laurel.ogg
|
||||
OFFSET:-1.107
|
||||
DEMOSTART:20.283
|
||||
|
||||
//Deviation: Ura #41 tweaked to recreate HS 8 for the drumroll tail.
|
||||
|
||||
COURSE:Edit
|
||||
LEVEL:9
|
||||
BALLOON:15
|
||||
SCOREINIT:1860
|
||||
SCOREDIFF:0
|
||||
|
||||
#START
|
||||
12,
|
||||
12,
|
||||
12,
|
||||
#MEASURE 2/4
|
||||
3,
|
||||
|
||||
#MEASURE 4/4
|
||||
#BPMCHANGE 150
|
||||
10101011,
|
||||
20224000,
|
||||
1120202
|
||||
#GOGOSTART
|
||||
3,
|
||||
000000202020200000100000200200100100200200100100,
|
||||
2222102221102211, //9
|
||||
#GOGOEND
|
||||
|
||||
1011201011012020,
|
||||
100000200200100000200000100000202020100000200000,
|
||||
1011201022021020,
|
||||
100100200200100200100200100202020200100000200000,
|
||||
|
||||
3011203011012020,
|
||||
4022104022021020,
|
||||
100100200200100200100200100202020200100000200000,
|
||||
1111112211112210, //17
|
||||
|
||||
3011204012021020,
|
||||
100000100200100000200000100000202020100000200000,
|
||||
3011204012021020,
|
||||
100100200200100200100200100202020200100000200000,
|
||||
|
||||
3011104021012020,
|
||||
4011103021012020,
|
||||
100100200200100200100200100202020200100000200000,
|
||||
100000100100000100200200200200101010200000100000, //25
|
||||
|
||||
#GOGOSTART
|
||||
2011201021112011,
|
||||
2011201021112010,
|
||||
2101201021012010,
|
||||
100000100000202020100000200200100000100000200000,
|
||||
|
||||
1111211111221121,
|
||||
1111211111221121,
|
||||
1111211111221121,
|
||||
200111100200111100200100,
|
||||
|
||||
200000200000200100100000200000101010100000100000,
|
||||
200000200000200200100000200000101010100000100000,
|
||||
500000000000000000000000000000000008000000000000,
|
||||
7008, //37
|
||||
#GOGOEND
|
||||
|
||||
#BPMCHANGE 75
|
||||
#SCROLL 1.3
|
||||
500008000000
|
||||
#SCROLL 1.5
|
||||
500008000000
|
||||
#SCROLL 1.1
|
||||
500008000000
|
||||
#SCROLL 1.4
|
||||
500008000000,
|
||||
#SCROLL 0.9
|
||||
500008000000
|
||||
#SCROLL 1.3
|
||||
500008000000
|
||||
#SCROLL 0.8
|
||||
500008000000
|
||||
#SCROLL 1.2
|
||||
500008000000,
|
||||
#SCROLL 0.7
|
||||
500008000000000000000000
|
||||
#SCROLL 8
|
||||
500000000000000000000000,
|
||||
#SCROLL 1
|
||||
00000000000000000000000
|
||||
#SCROLL 8
|
||||
8
|
||||
#SCROLL 1
|
||||
000000000000000000000000, //41
|
||||
|
||||
#SCROLL 1.3
|
||||
500008000000
|
||||
#SCROLL 1.5
|
||||
500008000000
|
||||
#SCROLL 1.1
|
||||
500008000000
|
||||
#SCROLL 1.4
|
||||
500008000000,
|
||||
#SCROLL 0.9
|
||||
500008000000
|
||||
#SCROLL 1.3
|
||||
500008000000
|
||||
#SCROLL 0.8
|
||||
500008000000
|
||||
#SCROLL 1.2
|
||||
500008000000,
|
||||
|
||||
#SCROLL 0.7
|
||||
500000000000000000000000000000000008000000000000,
|
||||
#MEASURE 29/64
|
||||
#SCROLL 8
|
||||
600000000000000000000000000000000000000000008000000000000000000000000000000000000000000,
|
||||
#BARLINEOFF
|
||||
#MEASURE 1/64
|
||||
#BPMCHANGE 18.75
|
||||
#SCROLL 0.5
|
||||
4,
|
||||
#MEASURE 31/64
|
||||
#BPMCHANGE 75
|
||||
#SCROLL 1
|
||||
0, //47
|
||||
|
||||
#BARLINEON
|
||||
#MEASURE 4/4
|
||||
#BPMCHANGE 150
|
||||
#GOGOSTART
|
||||
2011201121112011,
|
||||
2011201121112011,
|
||||
2111221121112211,
|
||||
100000100000202020100000200200100000100000200000,
|
||||
|
||||
1111211111221121,
|
||||
1111211111221121,
|
||||
100000100000202020100000200200100000200000100000,
|
||||
1222121222121222, //55
|
||||
|
||||
100000100000200100100000200000101010100000100000,
|
||||
100000100000200200100000200000101010100000100000,
|
||||
202020200100200200200200100202020200100000100000,
|
||||
4004004030104020,
|
||||
#GOGOEND
|
||||
|
||||
3,
|
||||
0,
|
||||
0,
|
||||
0,
|
||||
0, //64
|
||||
#END
|
||||
|
||||
|
||||
COURSE:Oni
|
||||
LEVEL:8
|
||||
BALLOON:9,15,33
|
||||
SCOREINIT:2330
|
||||
SCOREDIFF:0
|
||||
|
||||
#START
|
||||
12,
|
||||
12,
|
||||
12,
|
||||
#MEASURE 2/4
|
||||
7008,
|
||||
|
||||
#MEASURE 4/4
|
||||
#BPMCHANGE 150
|
||||
10101011,
|
||||
01000000,
|
||||
1010101
|
||||
#GOGOSTART
|
||||
3,
|
||||
0022202011221020,
|
||||
1222102012221020, //9
|
||||
#GOGOEND
|
||||
|
||||
3022203022201020,
|
||||
2211221020201020,
|
||||
3022203022201020,
|
||||
3022102211221020,
|
||||
|
||||
3022203022201020,
|
||||
4022104022101020,
|
||||
1122112212221020,
|
||||
100000100000200000200000500008000000200000000000, //17
|
||||
|
||||
3022204022201020,
|
||||
2211221020221020,
|
||||
3022204022201020,
|
||||
3022102211221020,
|
||||
|
||||
3022204022201020,
|
||||
4022104022101020,
|
||||
1122112212221020,
|
||||
100000100000200000200000500008000000200000000000, //25
|
||||
|
||||
#GOGOSTART
|
||||
1011201020102011,
|
||||
2022102010201020,
|
||||
1011202210112022,
|
||||
12221022,
|
||||
|
||||
1111201111221020,
|
||||
1111201111221020,
|
||||
100000200000200000200000500008000000200000000000,
|
||||
500000000000000000000000000000000008000000000000,
|
||||
|
||||
1122112212221222,
|
||||
100000100000200000200000500008000000200000000000,
|
||||
500000000000000000000000000000000008000000000000,
|
||||
7008, //37
|
||||
#GOGOEND
|
||||
|
||||
#BPMCHANGE 75
|
||||
2222,
|
||||
2222,
|
||||
27,
|
||||
08, //41
|
||||
|
||||
2222,
|
||||
2222,
|
||||
500000000000000000000000000000000008000000000000,
|
||||
#MEASURE 29/64
|
||||
600000000000000000000000000000000000000000000000000000000000000000000000000000008000000,
|
||||
#BARLINEOFF
|
||||
#MEASURE 1/64
|
||||
#BPMCHANGE 18.75
|
||||
#SCROLL 4
|
||||
0,
|
||||
#MEASURE 31/64
|
||||
#BPMCHANGE 75
|
||||
#SCROLL 1
|
||||
0, //47
|
||||
|
||||
#BARLINEON
|
||||
#MEASURE 4/4
|
||||
#BPMCHANGE 150
|
||||
#GOGOSTART
|
||||
1011201020102011,
|
||||
1022102010201020,
|
||||
1011202210112022,
|
||||
12221022,
|
||||
|
||||
1111201111221020,
|
||||
1111201111221020,
|
||||
100000200000200000200000500008000000200000000000,
|
||||
500000000000000000000000000000000008000000000000, //55
|
||||
|
||||
1122112212221222,
|
||||
100000100000200000200000500008000000200000000000,
|
||||
1121112112221020,
|
||||
3003003030004000,
|
||||
#GOGOEND
|
||||
|
||||
3,
|
||||
0,
|
||||
0,
|
||||
0,
|
||||
0, //64
|
||||
#END
|
||||
|
||||
|
||||
COURSE:Hard
|
||||
LEVEL:6
|
||||
BALLOON:7,10,25
|
||||
SCOREINIT:3450
|
||||
SCOREDIFF:0
|
||||
|
||||
#START
|
||||
12,
|
||||
12,
|
||||
12,
|
||||
#MEASURE 2/4
|
||||
7008,
|
||||
|
||||
#MEASURE 4/4
|
||||
#BPMCHANGE 150
|
||||
10101011,
|
||||
01000000,
|
||||
1010101
|
||||
#GOGOSTART
|
||||
3,
|
||||
02221020,
|
||||
1110200011102000, //9
|
||||
#GOGOEND
|
||||
|
||||
30030022,
|
||||
1011100010101000,
|
||||
30030022,
|
||||
1011101110101000,
|
||||
|
||||
30030022,
|
||||
30030022,
|
||||
1011101110111000,
|
||||
11221020, //17
|
||||
|
||||
30040022,
|
||||
1011100010101000,
|
||||
30040022,
|
||||
1011101110101000,
|
||||
|
||||
30040022,
|
||||
30040022,
|
||||
1011101110111000,
|
||||
11221020, //25
|
||||
|
||||
#GOGOSTART
|
||||
1000201020102011,
|
||||
10212120,
|
||||
1011100010111000,
|
||||
12221022,
|
||||
|
||||
1110200010102000,
|
||||
1110200010102000,
|
||||
12221020,
|
||||
500000000000000000000000000000000008000000000000,
|
||||
|
||||
1110111010102000,
|
||||
11221020,
|
||||
500000000000000000000000000000000008000000000000,
|
||||
7008, //37
|
||||
#GOGOEND
|
||||
|
||||
#BPMCHANGE 75
|
||||
2222,
|
||||
2222,
|
||||
27,
|
||||
08, //41
|
||||
|
||||
2222,
|
||||
2222,
|
||||
500000000000000000000000000000000008000000000000,
|
||||
#MEASURE 29/64
|
||||
600000000000000000000000000000000000000000000000000000000000000000000000000000008000000,
|
||||
#BARLINEOFF
|
||||
#MEASURE 1/64
|
||||
#BPMCHANGE 18.75
|
||||
#SCROLL 4
|
||||
0,
|
||||
#MEASURE 31/64
|
||||
#BPMCHANGE 75
|
||||
#SCROLL 1
|
||||
0, //47
|
||||
|
||||
#BARLINEON
|
||||
#MEASURE 4/4
|
||||
#BPMCHANGE 150
|
||||
#GOGOSTART
|
||||
1000201020102011,
|
||||
10212120,
|
||||
1011100010111000,
|
||||
12221022,
|
||||
|
||||
1110200010102000,
|
||||
1110200010102000,
|
||||
12221020,
|
||||
500000000000000000000000000000000008000000000000, //55
|
||||
|
||||
1110111010102000,
|
||||
11221020,
|
||||
1110111011102000,
|
||||
3003003030004000,
|
||||
#GOGOEND
|
||||
|
||||
3,
|
||||
0,
|
||||
0,
|
||||
0,
|
||||
0, //64
|
||||
#END
|
||||
|
||||
|
||||
COURSE:Normal
|
||||
LEVEL:5
|
||||
BALLOON:6,8,20
|
||||
SCOREINIT:4220
|
||||
SCOREDIFF:0
|
||||
|
||||
#START
|
||||
12,
|
||||
12,
|
||||
12,
|
||||
#MEASURE 2/4
|
||||
7008,
|
||||
|
||||
#MEASURE 4/4
|
||||
#BPMCHANGE 150
|
||||
10101011,
|
||||
01000000,
|
||||
1010101
|
||||
#GOGOSTART
|
||||
3,
|
||||
01111020,
|
||||
11201120, //9
|
||||
#GOGOEND
|
||||
|
||||
30030022,
|
||||
10001110,
|
||||
30030022,
|
||||
10101110,
|
||||
|
||||
30030022,
|
||||
30030022,
|
||||
11101110,
|
||||
11111020, //17
|
||||
|
||||
30040022,
|
||||
10001110,
|
||||
30040022,
|
||||
10101110,
|
||||
|
||||
30040022,
|
||||
30040022,
|
||||
11101110,
|
||||
11111020, //25
|
||||
|
||||
#GOGOSTART
|
||||
10212120,
|
||||
10212120,
|
||||
11101110,
|
||||
11111020,
|
||||
|
||||
11201120,
|
||||
11201120,
|
||||
11211020,
|
||||
500000000000000000000000000000000008000000000000,
|
||||
|
||||
1212,
|
||||
11211020,
|
||||
500000000000000000000000000000000008000000000000,
|
||||
7008, //37
|
||||
#GOGOEND
|
||||
|
||||
#BPMCHANGE 75
|
||||
2222,
|
||||
2222,
|
||||
27,
|
||||
08,
|
||||
|
||||
2222,
|
||||
2222,
|
||||
500000000000000000000000000000000008000000000000,
|
||||
#MEASURE 29/64
|
||||
600000000000000000000000000000000000000000000000000000000000000000000000000000008000000,
|
||||
#BARLINEOFF
|
||||
#MEASURE 1/64
|
||||
#BPMCHANGE 18.75
|
||||
#SCROLL 4
|
||||
0,
|
||||
#MEASURE 31/64
|
||||
#BPMCHANGE 75
|
||||
#SCROLL 1
|
||||
0, //47
|
||||
|
||||
#BARLINEON
|
||||
#MEASURE 4/4
|
||||
#BPMCHANGE 150
|
||||
#GOGOSTART
|
||||
10212120,
|
||||
10212120,
|
||||
11101110,
|
||||
11111020,
|
||||
|
||||
11201120,
|
||||
11201120,
|
||||
11211020,
|
||||
500000000000000000000000000000000008000000000000, //55
|
||||
|
||||
1212,
|
||||
11211020,
|
||||
11201120,
|
||||
3003003030004000,
|
||||
#GOGOEND
|
||||
|
||||
3,
|
||||
0,
|
||||
0,
|
||||
0,
|
||||
0, //64
|
||||
#END
|
||||
|
||||
|
||||
COURSE:Easy
|
||||
LEVEL:3
|
||||
BALLOON:5,5,6,17
|
||||
SCOREINIT:7240
|
||||
SCOREDIFF:0
|
||||
|
||||
#START
|
||||
12,
|
||||
12,
|
||||
12,
|
||||
#MEASURE 2/4
|
||||
7008,
|
||||
|
||||
#MEASURE 4/4
|
||||
#BPMCHANGE 150
|
||||
10101001,
|
||||
01000000,
|
||||
1010100
|
||||
#GOGOSTART
|
||||
3,
|
||||
0,
|
||||
7008, //9
|
||||
#GOGOEND
|
||||
|
||||
30030000,
|
||||
1011,
|
||||
30030000,
|
||||
1111,
|
||||
|
||||
30030000,
|
||||
30030000,
|
||||
1110,
|
||||
1110, //17
|
||||
|
||||
30040000,
|
||||
1011,
|
||||
30040000,
|
||||
1111,
|
||||
|
||||
30040000,
|
||||
30040000,
|
||||
1110,
|
||||
1110, //25
|
||||
|
||||
#GOGOSTART
|
||||
1022,
|
||||
1022,
|
||||
1110,
|
||||
1110,
|
||||
|
||||
1012,
|
||||
1012,
|
||||
1212,
|
||||
500000000000000000000000000000000008000000000000,
|
||||
|
||||
1012,
|
||||
1012,
|
||||
500000000000000000000000000000000008000000000000,
|
||||
7008, //37
|
||||
#GOGOEND
|
||||
|
||||
#BPMCHANGE 75
|
||||
2222,
|
||||
2222,
|
||||
27,
|
||||
08, //41
|
||||
|
||||
2222,
|
||||
2222,
|
||||
500000000000000000000000000000000008000000000000,
|
||||
#MEASURE 29/64
|
||||
600000000000000000000000000000000000000000000000000000000000000000000000000000008000000,
|
||||
#BARLINEOFF
|
||||
#MEASURE 1/64
|
||||
#BPMCHANGE 18.75
|
||||
#SCROLL 4
|
||||
0,
|
||||
#MEASURE 31/64
|
||||
#BPMCHANGE 75
|
||||
#SCROLL 1
|
||||
0, //47
|
||||
|
||||
#BARLINEON
|
||||
#MEASURE 4/4
|
||||
#BPMCHANGE 150
|
||||
#GOGOSTART
|
||||
1022,
|
||||
1022,
|
||||
1110,
|
||||
1112,
|
||||
|
||||
1012,
|
||||
1012,
|
||||
1212,
|
||||
500000000000000000000000000000000008000000000000, //55
|
||||
|
||||
1012,
|
||||
1012,
|
||||
1212,
|
||||
500000000000000000000008000000000000300000000000,
|
||||
#GOGOEND
|
||||
|
||||
3,
|
||||
0,
|
||||
0,
|
||||
0,
|
||||
0, //64
|
||||
#END
|
||||
Reference in New Issue
Block a user