This commit is contained in:
2026-03-04 23:59:27 +09:00
parent 6e0312f5b4
commit 4b4e2b8c98
1128 changed files with 668765 additions and 0 deletions

364
tja/1415.tja Normal file
View File

@@ -0,0 +1,364 @@
//TJADB Project
TITLE:Kaijuu
TITLEJA:怪獣
SUBTITLE:--
SUBTITLEJA:
BPM:180
WAVE:Kaijuu.ogg
OFFSET:-2.518
DEMOSTART:67.839
COURSE:Oni
LEVEL:7
BALLOON:30
SCOREINIT:2700
SCOREDIFF:0
#START
#MEASURE 8/4
#SCROLL 0.5
1001000010020000,
1001000010020000,
1001000010020200,
1001000010020200,
1001000010020000,
1001000010020000,
1001000010020200,
#MEASURE 4/4
10010000,
#SCROLL 1
7,
08, //10
10221120,
11210121,
01210121,
1110201011102010,
10212120,
11210121,
10212122,
10112121, //18
10221120,
11210121,
01210121,
1110201011102010,
10212120,
11210121,
10212122,
10211111, //26
4000001110002010,
1000102011102000,
1000001110002010,
1000102011102000,
10221120,
11210122,
10221120,
11221111, //34
4000001110002011,
1000102011102000,
1000001110002011,
2000101022102220,
10221120,
10221120,
1111,
3, //42
#GOGOSTART
1000100010201111,
1000100010201111,
1000100010201111,
1000100010201111,
1000222220001111,
10102120,
12101210,
12101211, //50
4000100010201111,
1000100010201111,
1000100010201111,
1000100010201111,
1000222220001111,
10102120,
1020100010201111,
1020102011112000,
#GOGOEND
0,
0, //60
#END
COURSE:Hard
LEVEL:4
BALLOON:10
SCOREINIT:4340
SCOREDIFF:0
#START
#MEASURE 8/4
#SCROLL 0.5
1001000010000000,
1001000010010000,
1001000010010100,
1001000010010100,
1,
1001000010010000,
1001000010010100,
#MEASURE 4/4
1,
#SCROLL 1
9009,
8, //10
10201120,
1202,
1202,
3344,
10201120,
1202,
10201022,
100000000000500000000000000000000008000000000000, //18
10201120,
1202,
1202,
3344,
10201120,
1202,
10201022,
100000000000500000000000000000000008000000000000, //26
40011020,
10011020,
10011020,
10012020,
10221020,
10210120,
10221020,
10111110, //34
40011020,
10011020,
10011020,
10012020,
10201120,
10201120,
1111,
3, //42
#GOGOSTART
10101210,
10101210,
10101210,
10101230,
0403,
0022,
12101210,
12101011, //50
20101211,
10101211,
10101211,
10101230,
0403,
0022,
12101210,
12121120,
#GOGOEND
0,
0, //60
#END
COURSE:Normal
LEVEL:4
BALLOON:7
SCOREINIT:5670
SCOREDIFF:0
#START
#MEASURE 8/4
#SCROLL 0.5
1001000010000000,
1001000010000000,
1001000010000000,
1001000010000000,
1,
1001000010000000,
1001000010000000,
#MEASURE 4/4
1,
#SCROLL 1
9009,
8, //10
1212,
1,
1,
1122,
1212,
1,
1222,
500000000000000000000000000000000008000000000000, //18
1212,
1,
1,
1122,
1212,
1,
1222,
100000000000500000000000000000000008000000000000, //26
40010010,
10010020,
10010010,
10012020,
1212,
10220200,
1212,
500000000000000000000000000000000008000000000000, //34
40010010,
10010020,
10010010,
10012020,
1212,
1212,
1111,
3, //42
#GOGOSTART
10101110,
10101110,
10101110,
1113,
0403,
0022,
10101110,
11101010, //50
20101110,
10101110,
10101110,
1113,
0403,
0022,
10101110,
10101120,
#GOGOEND
0,
0, //60
#END
COURSE:Easy
LEVEL:3
BALLOON:6,5
SCOREINIT:10860
SCOREDIFF:0
#START
#MEASURE 8/4
#SCROLL 0.5
1,
11,
11,
11,
1,
11,
11,
#MEASURE 4/4
1,
#SCROLL 1
9009,
8, //10
11,
1,
0,
12,
11,
1,
12,
1, //18
11,
1,
0,
12,
11,
1,
12,
1, //26
4,
1001,
1,
1001,
11,
1,
11,
1, //34
4,
1001,
1,
1001,
11,
11,
500000000000000000000000000008000000000000000000,
3, //42
#GOGOSTART
1011,
1011,
1011,
1013,
0303,
0,
1110,
1, //50
1011,
1011,
1011,
1013,
0303,
0,
11,
7008,
#GOGOEND
0,
0, //60
#END