This commit is contained in:
2026-03-04 23:59:27 +09:00
parent 6e0312f5b4
commit 4b4e2b8c98
1128 changed files with 668765 additions and 0 deletions

552
tja/1438.tja Normal file
View File

@@ -0,0 +1,552 @@
//TJADB Project
TITLE:SORA-VIII Nebula Trail
TITLEJA:SORA-VIII ネビュラトレイル
SUBTITLE:--Shin Sazaki(BNSI)
SUBTITLEJA:Shin Sazaki(BNSI)
BPM:170
WAVE:SORA-VIII Nebula Trail.ogg
OFFSET:-0.949
DEMOSTART:102.593
COURSE:Oni
LEVEL:9
BALLOON:
SCOREINIT:1130
SCOREDIFF:0
#START
1002001000102022,
2002001000102010,
1002001000102022,
2002001000102010,
1002001000102022,
2002001000102010,
1002001000102022,
2002001112212210, //8
1002001000102022,
2002001000102010,
1002001000102022,
2002101011210210,
1022102210221022,
1022102210221022,
1212121212121212,
100100100100100100101010100000000000000000000000, //16
42,
00000001,
12,
0000001010102100,
1022111210021020,
1200101210202122,
1012121210012210,
000100200200101010100000400000000000000000000000, //24
1111100020110020,
1100201100201112,
1110222220110020,
100100000000200100100000200000202020200000000000,
1111100020110020,
1100201100201112,
1110222220110020,
1100211040010010, //32
1001222210012010,
0010122221012210,
1001222210012010,
0010122221012210,
1001222210012010,
0010122221012210,
1001222210012010,
0012222210000000, //40
3000201020110020,
1100201100201110,
3000201020110020,
100100000000100200200200200000201010100000200000,
3000201020110020,
1100201100201110,
3000210110120110,
200100100100100100101010200000000000000000000000, //48
1002002012020022,
2002002012021020,
1002002012020022,
2002002012021020,
1002002012020022,
2002002012021020,
1002002012020022,
2012222212212210, //56
1001001022203003,
0030030030001111,
1001001022203003,
0030030030012210,
1022122212221222,
1022122212221222,
1212121212121212,
100100100100100100101010200000000000000000000000, //64
32,
02,
02,
02,
1022002200220022,
1022112211221122,
1212121212121212,
100100100100100100101010200000000000000000000000, //72
#GOGOSTART
1010201100101020,
0010202210022212,
1010201100101020,
0010220210120210,
1010201100101020,
0010202210122112,
1010201100101020,
0010222210120120, //80
1010201100101020,
0010202210022212,
1010201100101020,
0010220211102222,
1001201120122011,
2012201120112110,
1212121212121212,
100100100100100100101010
#GOGOEND
200000000000000000000000, //88
#GOGOSTART
100000101010100100000100200100100100000100200100,
1101211101202222,
1010211121110121,
100100000100200100200200100020002000200020002000,
100000101010100100000100200100100100000100200100,
1101211101202222,
100000100000101010100100200100100100000100200100,
1201211120000000,
#GOGOEND
0,
0, //98
#END
COURSE:Hard
LEVEL:7
BALLOON:
SCOREINIT:1960
SCOREDIFF:0
#START
1001001000001000,
20010101,
1001001000001000,
20002101,
1001001000002000,
10012101,
1001001000001000,
2000001110010010, //8
1001001000001000,
20010101,
1001001000001000,
2000101020010010,
1111,
1111,
11111111,
1110111110000000, //16
4,
00000001,
1,
0000001010100100,
1000101110021020,
1000101110202220,
1010101030030030,
0300300040000000, //24
1110000020100020,
1000201000201011,
10202102,
1000202020222000,
1110000020100020,
1000201000201011,
10202102,
10214000, //32
1000222010010010,
0010102220010010,
1000222010010010,
0010102220010010,
1000222010010010,
0010102220010010,
1000222010010010,
0010111110000000, //40
30202102,
10210211,
30202102,
1000201110200020,
30202102,
10210211,
5,
000000000000000000000008000000000000000000000000, //48
1000001010010000,
2002002000002020,
1000001010010000,
2000000020020020,
1000001010010000,
2002002000002020,
1000001010010000,
2000000020020020, //56
1001001020003003,
0030030030000000,
1001001020003003,
0030030030000000,
1111,
1111,
11111111,
1110111020000000, //64
32,
02,
02,
02,
11,
1111,
11111111,
1110111040000000, //72
#GOGOSTART
11210112,
0010202220020020,
11210112,
0010220210010010,
11210112,
0010202220020020,
11210112,
0010222010010010, //80
11210112,
0010202220020020,
11210112,
0010220210010010,
1001002220001001,
0022200010222000,
5,
000000000000000000000008
#GOGOEND
000000000000000000000000, //88
#GOGOSTART
1010100020110020,
1100201100202220,
1010100020110020,
100100000000200000100100100020002000200020002000,
1010100020110020,
1100201100202220,
1010100020110020,
1100201040000000,
#GOGOEND
0,
0, //98
#END
COURSE:Normal
LEVEL:6
BALLOON:
SCOREINIT:3220
SCOREDIFF:0
#START
10010000,
20000101,
10010000,
20002101,
10010020,
00002101,
10010000,
2000000010010010, //8
10010000,
20000101,
10010000,
2000000020010010,
1111,
1111,
5,
000000000000000000000008000000000000000000000000, //16
4,
0,
1,
0,
1000101010020020,
1000101010200200,
1010100030030030,
0300300040000000, //24
10002102,
10210210,
10002102,
10212000,
10002102,
10210210,
10002102,
10214000, //32
1000200010010010,
0000100020010010,
1000200010010010,
0000100020010010,
1000200010010010,
0000100020010010,
1000200010010050,
000000000000000000000008000000000000000000000000, //40
3222,
2220,
3222,
2220,
3222,
2220,
5,
000000000000000000000008000000000000000000000000, //48
11,
2002002000002000,
11,
2000000020020020,
11,
2002002000002000,
11,
2000000020020020, //56
1001001000003003,
0030030030000000,
1001001000003003,
0030030030000000,
1111,
1111,
5,
000000000000000000000008000000000000000000000000, //64
32,
0,
0,
0,
1,
11,
5,
000000000000000000000008000000000000000000000000, //72
#GOGOSTART
10210102,
00211020,
10210102,
00201120,
10210102,
00211020,
10210102,
00201120, //80
10210102,
00211020,
10210102,
00201120,
1111,
1111,
5,
000000000000000000000008
#GOGOEND
000000000000000000000000, //88
#GOGOSTART
11102102,
10210210,
11102102,
10212000,
11102102,
10210210,
11102102,
10214000,
#GOGOEND
0,
0, //98
#END
COURSE:Easy
LEVEL:5
BALLOON:
SCOREINIT:5280
SCOREDIFF:0
#START
10010000,
2,
10010000,
22,
10010020,
02,
10010000,
2, //8
10010000,
2,
10010000,
22,
1111,
1111,
5,
000000000000000000000008000000000000000000000000, //16
4,
0,
0,
0,
1111,
1111,
1000100030030030,
0300300040000000, //24
10001001,
00100100,
10001001,
0120,
10001001,
00100100,
10001001,
0140, //32
1000000010010010,
02,
1000000010010010,
02,
1000000010010010,
02,
1000000010010050,
000000000000000000000008000000000000000000000000, //40
3011,
1110,
3011,
1110,
3011,
1110,
5,
000000000000000000000008000000000000000000000000, //48
1,
2,
1,
22,
1002,
02,
1,
2, //56
1001001000006000,
000000000000000000000008000000000000000000000000,
1001001000006000,
000000000000000000000008000000000000000000000000,
1111,
1111,
5,
000000000000000000000008000000000000000000000000, //64
3,
0,
0,
0,
1,
11,
5,
000000000000000000000008000000000000000000000000, //72
#GOGOSTART
10010102,
02,
10010102,
01,
10010102,
02,
10010102,
01, //80
10010102,
02,
10010102,
01,
1111,
1111,
5,
000000000000000000000008
#GOGOEND
000000000000000000000000, //88
#GOGOSTART
30001001,
00100100,
30001001,
0120,
30001001,
00100100,
30001001,
0140,
#GOGOEND
0,
0, //98
#END