This commit is contained in:
2026-03-04 23:59:27 +09:00
parent 6e0312f5b4
commit 4b4e2b8c98
1128 changed files with 668765 additions and 0 deletions

470
tja/1442.tja Normal file
View File

@@ -0,0 +1,470 @@
//TJADB Project
TITLE:Zankoku na Yoru ni Kagayake
TITLEJA:残酷な夜に輝け
SUBTITLE:--Demon Slayer: Kimetsu no Yaiba the Movie: Infinity Castle Part 1 Akaza Returns
SUBTITLEJA:「劇場版 「鬼滅の刃」無限城編 第一章 猗窩座再来」より
BPM:170
WAVE:Zankoku na Yoru ni Kagayake.ogg
OFFSET:-1.348
DEMOSTART:63.031
//Shinuchi: 13290/9690/5070/2220
COURSE:Oni
LEVEL:6
BALLOON:28,39
SCOREINIT:660,2370
SCOREDIFF:173
#START
31201010,
1203,
32,
23,
3023,
3023,
3023,
33,
0,
00000001, //10
10011001,
10022001,
10015000,
000000000000000000000008000000000000200000000000,
1121,
00112101,
1121,
00112121, //18
10011001,
10022001,
10015000,
000000000000000000000008000000000000200000000000,
1121,
10112101,
1121,
02112022, //26
10211120,
10212120,
30211120,
30212120,
1010201011102000,
1010201022102000,
3010201011102000,
3010201022102000, //34
10211020,
10211120,
1110201010102000,
1010222010102000,
1212,
10202120,
7,
0008,
3011,
1000200020001011, //44
#GOGOSTART
1010200020101011,
11211121,
10221120,
1110201011102010,
1110200020101011,
11201121,
1110202011102020,
1110202022202020, //52
1000100010002011,
11211021,
1110102020002010,
1112,
1110102020002010,
1110102020002010,
1110101020002010,
1000100022202020, //60
1010200020101011,
11211121,
10221120,
1110201011102010,
1110200020101011,
11201121,
1110202011102020,
1000101020201110, //68
5,
000000000000000000000000000000000008000000000000,
1110102010001010,
1110101010002010,
5,
000000000000000000000008000000000000000000000000,
10121020,
1110202011102020, //76
7,
0,
00000800,
10121221,
#GOGOEND
3,
0,
0,
0, //84
#END
COURSE:Hard
LEVEL:2
BALLOON:19,31
SCOREINIT:950,5830
SCOREDIFF:353
#START
3,
0003,
3,
0,
3,
3,
3,
33,
0,
0, //10
1,
11,
5,
000000000000000000000008000000000000000000000000,
1011,
0,
1011,
0, //18
1,
11,
5,
000000000000000000000008000000000000000000000000,
1021,
0100,
1121,
0100, //26
10011000,
10022000,
30033000,
40044000,
10011000,
10022000,
30033000,
40044000, //34
1111,
0202,
1111,
0200,
1111,
0202,
9,
000000000000000000000009000000000000000000000008,
0,
0, //44
#GOGOSTART
10000111,
0111,
10011000,
10022001,
10000111,
0111,
10011001,
10022001, //52
10000011,
0222,
10011000,
2111,
10011001,
10022001,
10011000,
10202001, //60
10000011,
0111,
10011000,
10022001,
10000011,
0111,
10022000,
2111, //68
5,
000000000000000000000000000000000008000000000000,
1021,
1110,
5,
000000000000000000000008000000000000000000000000,
1021,
11, //76
7,
0,
00000800,
1121,
#GOGOEND
3,
0,
0,
0, //84
#END
COURSE:Normal
LEVEL:1
BALLOON:14,18
SCOREINIT:1230,11510
SCOREDIFF:918
#START
3,
0,
3,
0,
3,
3,
3,
33,
0,
0, //10
1,
1,
5,
000000000000000000000008000000000000000000000000,
11,
0,
11,
0, //18
1,
1,
5,
000000000000000000000008000000000000000000000000,
11,
0,
11,
0, //26
11,
1,
33,
3,
11,
1,
33,
3, //34
1011,
0,
1011,
0,
1011,
0,
9,
000000000000000000000009000000000000000000000008,
0,
0, //44
#GOGOSTART
1001,
11,
1,
2,
1001,
11,
11,
11, //52
1002,
22,
2,
0110,
11,
11,
1,
01, //60
1001,
11,
1,
2,
1001,
11,
11,
02, //68
5,
000000000000000000000000000000000008000000000000,
1,
11,
5,
000000000000000000000008000000000000000000000000,
0,
11, //76
7,
0,
00000800,
0,
#GOGOEND
3,
0,
0,
0, //84
#END
COURSE:Easy
LEVEL:1
BALLOON:12,16
SCOREINIT:1270,16000
SCOREDIFF:1213
#START
3,
0,
3,
0,
3,
3,
3,
3,
0,
0, //10
1,
0,
5,
000000000000000000000008000000000000000000000000,
11,
0,
11,
0, //18
1,
0,
5,
000000000000000000000008000000000000000000000000,
11,
0,
11,
0, //26
1,
1,
3,
3,
1,
1,
3,
3, //34
1001,
0,
1001,
0,
1001,
0,
9,
000000000000000000000009000000000000000000000008,
0,
0, //44
#GOGOSTART
1,
11,
1,
1,
1,
11,
1,
1, //52
1,
2,
2,
0,
1,
1,
1,
0, //60
1,
11,
1,
1,
1,
11,
1,
2, //68
5,
000000000000000000000000000008000000000000000000,
1,
11,
5,
000000000000000000000008000000000000000000000000,
0,
11, //76
7,
0,
00000800,
0,
#GOGOEND
3,
0,
0,
0, //84
#END