This commit is contained in:
2026-03-04 23:59:27 +09:00
parent 6e0312f5b4
commit 4b4e2b8c98
1128 changed files with 668765 additions and 0 deletions

396
tja/1445.tja Normal file
View File

@@ -0,0 +1,396 @@
//TJADB Project
TITLE:VISIONS
TITLEJA:VISIONS
SUBTITLE:--Kamen Rider ZEZTZ
SUBTITLEJA:「仮面ライダーゼッツ」より
BPM:195.1
WAVE:VISIONS.ogg
OFFSET:-2.361
DEMOSTART:40.482
//Shinuchi: 38720/19680/6730/3040
COURSE:Oni
LEVEL:6
BALLOON:21,11,11,11,11
SCOREINIT:890,3180
SCOREDIFF:243
#START
0,
0,
0,
0,
0,
0,
0, //7
10201110,
10201110,
10201011,
21210111,
10201110,
1211,
10201121,
21120222, //15
10121120,
10110202,
1011101020002000,
1000101020111000,
1000101020111000,
11012120,
1011101020002000,
11201122, //23
10201120,
1210,
10201120,
1210,
7,
000000000000000000000000000008000000000000000000,
21,
11, //31
#GOGOSTART
30110120,
1010111010102000,
10110120,
1010111010102000,
700000000000000000000000000000000000000008000000,
1010111010102000,
700000000000000000000000000000000000000008000000,
1010111010102000, //39
30110120,
1010111010102000,
10110120,
1010111010102000,
700000000000000000000000000000000000000008000000,
1010111010102000,
700000000000000000000000000000000000000008000000,
1110
#GOGOEND
2020, //47
#GOGOSTART
11212101,
21110121,
21112101,
21110122,
11212101,
21110121,
21112101,
21110122, //55
1011102010102000,
1000101110200020,
1011102010102000,
1000102220100020,
1011102010102000,
1000101110200020,
1011102010102000,
10001022201000
#GOGOEND
20,
0,
0, //65
#END
COURSE:Hard
LEVEL:4
BALLOON:13,7,7,7,7
SCOREINIT:1430,7060
SCOREDIFF:583
#START
0,
0,
0,
0,
0,
0,
0, //7
1011,
0011,
0011,
00020010,
0011,
0011,
05,
000000000000000000000000000008000000000000000000, //15
11,
10110000,
11,
10110000,
11,
12,
11,
1110, //23
11,
1,
11,
1,
7,
000000000000000000000000000008000000000000000000,
01,
11, //31
#GOGOSTART
30110110,
1110,
10110110,
1110,
700000000000000000000000000000000000000008000000,
0,
700000000000000000000000000000000000000008000000,
0, //39
30110110,
1110,
10110110,
1110,
700000000000000000000000000000000000000008000000,
0,
700000000000000000000000000000000000000008000000,
0
#GOGOEND
1, //47
#GOGOSTART
1122,
10110000,
1122,
10110020,
1122,
10110000,
1122,
10110110, //55
10101110,
10220200,
10101110,
10220200,
10101110,
10220200,
10101110,
1002020
#GOGOEND
2,
0,
0, //65
#END
COURSE:Normal
LEVEL:1
BALLOON:9,5,5,5,5
SCOREINIT:2410,21170
SCOREDIFF:3330
#START
#SCROLL 0.75
0,
0,
0,
0,
0,
0,
0, //7
01,
01,
05,
000000000000000000000000000008000000000000000000,
01,
01,
05,
000000000000000000000000000008000000000000000000, //15
11,
0,
11,
0,
11,
0,
11,
0, //23
1,
1,
1,
1,
7,
000000000000000000000000000008000000000000000000,
0,
0, //31
#GOGOSTART
3,
11,
1,
11,
700000000000000000000000000000000000000008000000,
0,
700000000000000000000000000000000000000008000000,
0, //39
3,
11,
1,
11,
700000000000000000000000000000000000000008000000,
0,
700000000000000000000000000000000000000008000000,
0
#GOGOEND
0, //47
#GOGOSTART
1,
1,
2,
0,
1,
1,
2,
0, //55
11,
1,
11,
1,
11,
1,
11,
1000000
#GOGOEND
2,
0,
0, //65
#END
COURSE:Easy
LEVEL:1
BALLOON:6,3,3,3,3
SCOREINIT:4080,43340
SCOREDIFF:8190
#START
#SCROLL 0.75
0,
0,
0,
0,
0,
0,
0, //7
01,
0,
05,
000000000000000000000008000000000000000000000000,
01,
0,
05,
000000000000000000000008000000000000000000000000, //15
1,
0,
1,
0,
1,
0,
1,
0, //23
1,
0,
1,
0,
7,
000000000000000000000000000008000000000000000000,
0,
0, //31
#GOGOSTART
3,
0,
1,
0,
700000000000000000000000000000000000000008000000,
0,
700000000000000000000000000000000000000008000000,
0, //39
3,
0,
1,
0,
700000000000000000000000000000000000000008000000,
0,
700000000000000000000000000000000000000008000000,
0
#GOGOEND
0, //47
#GOGOSTART
1,
0,
2,
0,
1,
0,
2,
0, //55
1,
1,
1,
0,
1,
1,
1,
1000000
#GOGOEND
0,
0,
0, //65
#END