tja
This commit is contained in:
375
tja/1457.tja
Normal file
375
tja/1457.tja
Normal file
@@ -0,0 +1,375 @@
|
||||
//TJADB Project
|
||||
TITLE:TsunagaRhythm
|
||||
TITLEJA:ツナガリズム
|
||||
SUBTITLE:--Kei Kawaguchi feat. Shinobu Kawashima (CHiLi GiRL) / WADIVE RECORD
|
||||
SUBTITLEJA:川口ケイ feat. 川嶋志乃舞(CHiLi GiRL) / WADIVE RECORD
|
||||
BPM:140
|
||||
WAVE:TsunagaRhythm.ogg
|
||||
OFFSET:-1.499
|
||||
DEMOSTART:42.412
|
||||
|
||||
//SONG_ID:tu7gar
|
||||
//Shinuchi: 6830/3760/2320/1540
|
||||
|
||||
COURSE:Oni
|
||||
LEVEL:8
|
||||
BALLOON:7
|
||||
SCOREINIT:480,1600
|
||||
SCOREDIFF:120
|
||||
|
||||
#START
|
||||
1010222010210210,
|
||||
0010222010112020,
|
||||
1022102211111111,
|
||||
100000000000200000100200100200100000202020200000,
|
||||
|
||||
#GOGOSTART
|
||||
1022101220101022,
|
||||
1012101020101011,
|
||||
1022102120121020,
|
||||
1120202212022020, //8
|
||||
#GOGOEND
|
||||
|
||||
30000110,
|
||||
1022002010220022,
|
||||
1202020212201010,
|
||||
1202102010212111,
|
||||
|
||||
1022102210221020,
|
||||
1022002010222020,
|
||||
1022101210221210,
|
||||
500000000000000008000000200000100100100000100000,
|
||||
|
||||
1002101020220220,
|
||||
2012012010202022,
|
||||
1002101020220220,
|
||||
2012012010102022,
|
||||
|
||||
1011021010120122,
|
||||
1011021120201010,
|
||||
2111211121212121,
|
||||
2022120220201020, //24
|
||||
|
||||
#GOGOSTART
|
||||
300000101010200000200000100100200100200000200200,
|
||||
1012112210404012,
|
||||
100000101010200000200000100100200000200000200200,
|
||||
1210112210221010,
|
||||
|
||||
3022102110104000,
|
||||
1021102210104011,
|
||||
1011202211102121,
|
||||
1010202030212020,
|
||||
|
||||
300000101010200000200000100100200100200000200200,
|
||||
1012112210404012,
|
||||
100000101010200000200000100100200000200000200200,
|
||||
1210112210221010,
|
||||
|
||||
3022102110104000,
|
||||
1021102210104011,
|
||||
1011202211102121,
|
||||
1021021120120120,
|
||||
#GOGOEND
|
||||
78, //41
|
||||
|
||||
#GOGOSTART
|
||||
3022121210221012,
|
||||
0222102212221010,
|
||||
1021120210221012,
|
||||
1022111011202202,
|
||||
|
||||
1022121210221012,
|
||||
0222102212221010,
|
||||
1021120210221011,
|
||||
2021202212022020,
|
||||
|
||||
3022102210222020,
|
||||
100000100200200000100000300000202020200000200000,
|
||||
1022102210222020,
|
||||
1012201030202202,
|
||||
|
||||
1022102210222020,
|
||||
100000100200200000100000300000202020200000200000,
|
||||
1022102210222020,
|
||||
1012201030222222,
|
||||
#GOGOEND
|
||||
|
||||
1011102210102020,
|
||||
0600,
|
||||
000000000000000000000000000000000000000000000008,
|
||||
0, //61
|
||||
#END
|
||||
|
||||
|
||||
COURSE:Hard
|
||||
LEVEL:6
|
||||
BALLOON:6
|
||||
SCOREINIT:550,2520
|
||||
SCOREDIFF:150
|
||||
|
||||
#START
|
||||
1010202010010010,
|
||||
01221120,
|
||||
1020102011101110,
|
||||
1222,
|
||||
|
||||
#GOGOSTART
|
||||
1011101010002000,
|
||||
1011101020001000,
|
||||
1011101110111010,
|
||||
1000002220000000, //8
|
||||
#GOGOEND
|
||||
|
||||
30000110,
|
||||
1011000010110010,
|
||||
1101010100202020,
|
||||
1101101010002000,
|
||||
|
||||
12121212,
|
||||
1011000010111010,
|
||||
1011101110101010,
|
||||
500000000000000008000000000000000000000000000000,
|
||||
|
||||
1120,
|
||||
2010010010002020,
|
||||
1120,
|
||||
2010010010102000,
|
||||
|
||||
1011001010110010,
|
||||
1011001020201010,
|
||||
2020202011101110,
|
||||
500000000000000000000008000000000000100000000000, //24
|
||||
|
||||
#GOGOSTART
|
||||
1010200010111010,
|
||||
02121440,
|
||||
1010200010111010,
|
||||
0022202000101000,
|
||||
|
||||
1011101110104000,
|
||||
1011102220204000,
|
||||
1010200010101110,
|
||||
11223000,
|
||||
|
||||
1010200010111010,
|
||||
02121440,
|
||||
1010200010111010,
|
||||
0022202000101000,
|
||||
|
||||
1011101110104000,
|
||||
1011102220204000,
|
||||
11201122,
|
||||
1001001020020020,
|
||||
#GOGOEND
|
||||
78, //41
|
||||
|
||||
#GOGOSTART
|
||||
3020102010220010,
|
||||
0022202010201010,
|
||||
0010202010220010,
|
||||
1022202010101000,
|
||||
|
||||
3020102010220010,
|
||||
0022202010201010,
|
||||
0011101020220020,
|
||||
1010101101011000,
|
||||
|
||||
3000300030222020,
|
||||
11013220,
|
||||
3000300030222020,
|
||||
11013220,
|
||||
|
||||
3000300030222020,
|
||||
11013220,
|
||||
3000300030222020,
|
||||
11013222,
|
||||
#GOGOEND
|
||||
|
||||
1011101110102020,
|
||||
0600,
|
||||
000000000000000000000000000000000000000000000008,
|
||||
0, //61
|
||||
#END
|
||||
|
||||
|
||||
COURSE:Normal
|
||||
LEVEL:5
|
||||
BALLOON:5
|
||||
SCOREINIT:660,4330
|
||||
SCOREDIFF:203
|
||||
|
||||
#START
|
||||
1000000010010010,
|
||||
0212,
|
||||
10101110,
|
||||
1,
|
||||
|
||||
#GOGOSTART
|
||||
10111020,
|
||||
11102000,
|
||||
10101011,
|
||||
12, //8
|
||||
#GOGOEND
|
||||
|
||||
30000110,
|
||||
11,
|
||||
1011,
|
||||
10111000,
|
||||
|
||||
1111,
|
||||
11,
|
||||
11101110,
|
||||
500000000000000008000000000000000000000000000000,
|
||||
|
||||
1120,
|
||||
0010010010000000,
|
||||
1120,
|
||||
0010010010000010,
|
||||
|
||||
10011001,
|
||||
10011020,
|
||||
10101110,
|
||||
500000000000000000000008000000000000000000000000, //24
|
||||
|
||||
#GOGOSTART
|
||||
30401101,
|
||||
02201000,
|
||||
30401101,
|
||||
02220110,
|
||||
|
||||
11102040,
|
||||
11102040,
|
||||
10201110,
|
||||
22203000,
|
||||
|
||||
30401101,
|
||||
02201000,
|
||||
30401101,
|
||||
02220110,
|
||||
|
||||
11102040,
|
||||
11102040,
|
||||
10202220,
|
||||
1001000010010000,
|
||||
#GOGOEND
|
||||
78, //41
|
||||
|
||||
#GOGOSTART
|
||||
30111001,
|
||||
02201010,
|
||||
01101001,
|
||||
10222020,
|
||||
|
||||
30111001,
|
||||
02201010,
|
||||
01101001,
|
||||
1111,
|
||||
|
||||
3332,
|
||||
11013020,
|
||||
3332,
|
||||
11013020,
|
||||
|
||||
3332,
|
||||
11013020,
|
||||
3332,
|
||||
11013020,
|
||||
#GOGOEND
|
||||
|
||||
10101111,
|
||||
0600,
|
||||
000000000000000000000000000000000000000000000008,
|
||||
0, //61
|
||||
#END
|
||||
|
||||
|
||||
COURSE:Easy
|
||||
LEVEL:3
|
||||
BALLOON:4
|
||||
SCOREINIT:670,8310
|
||||
SCOREDIFF:283
|
||||
|
||||
#START
|
||||
10000001,
|
||||
0,
|
||||
0111,
|
||||
1,
|
||||
|
||||
#GOGOSTART
|
||||
1110,
|
||||
1110,
|
||||
1011,
|
||||
12, //8
|
||||
#GOGOEND
|
||||
|
||||
3,
|
||||
1,
|
||||
1,
|
||||
11,
|
||||
|
||||
1,
|
||||
1,
|
||||
11,
|
||||
500000000000000008000000000000000000000000000000,
|
||||
|
||||
12,
|
||||
0,
|
||||
12,
|
||||
0,
|
||||
|
||||
11,
|
||||
11,
|
||||
1110,
|
||||
500000000000000000000008000000000000000000000000, //24
|
||||
|
||||
#GOGOSTART
|
||||
10101001,
|
||||
02,
|
||||
10101001,
|
||||
00010000,
|
||||
|
||||
1110,
|
||||
1110,
|
||||
11,
|
||||
2240,
|
||||
|
||||
10101001,
|
||||
02,
|
||||
10101001,
|
||||
00010000,
|
||||
|
||||
1110,
|
||||
1110,
|
||||
11,
|
||||
33,
|
||||
#GOGOEND
|
||||
78, //41
|
||||
|
||||
#GOGOSTART
|
||||
10101001,
|
||||
01,
|
||||
0111,
|
||||
1110,
|
||||
|
||||
10101001,
|
||||
01,
|
||||
0111,
|
||||
12,
|
||||
|
||||
3330,
|
||||
33,
|
||||
3330,
|
||||
33,
|
||||
|
||||
3330,
|
||||
33,
|
||||
3330,
|
||||
33,
|
||||
#GOGOEND
|
||||
|
||||
1,
|
||||
0600,
|
||||
000000000000000000000000000000000000000000000008,
|
||||
0, //61
|
||||
#END
|
||||
Reference in New Issue
Block a user