This commit is contained in:
2026-03-04 23:59:27 +09:00
parent 6e0312f5b4
commit 4b4e2b8c98
1128 changed files with 668765 additions and 0 deletions

318
tja/146.tja Normal file
View File

@@ -0,0 +1,318 @@
//TJADB Project
TITLE:Calamari Inkantation
TITLEJA:シオカラ節
SUBTITLE:--Squid Sisters/Splatoon
SUBTITLEJA:「スプラトゥーン」より
BPM:145
WAVE:Calamari Inkantation.ogg
OFFSET:-1.833
DEMOSTART:43.203
//shinuchi: 8270/5720/3430/2240
COURSE:Oni
LEVEL:7
BALLOON:
SCOREINIT:670,2310
SCOREDIFF:193
#START
1000001000102222,
#GOGOSTART
13,
3000000020222020,
33,
22202000,
3232,
3000200020222020,
30223022,
1020102010201111, //9
#GOGOEND
1002102010011020,
1002102010011020,
1002102010011022,
1210102011011022,
2001201010022010,
2011201022022020,
1002102010011020,
1122101020102220, //17
100000000100100000200000500000000000000000000008,
0000001020112020,
100000000100100000200000500000000008000000200000,
1020211020021020,
100000000100100000200000500000000008000000100000,
2010211020111020,
1001201010012010,
3000300030002222, //25
#GOGOSTART
1022102010221020,
1022102010201120,
1022102010221020,
1120112010221120,
1022102010221020,
1022102210201120,
1022102010111020,
1122112211221122, //33
1022102010211020,
1022102210101120,
1022102210211020,
1120102210221120,
1021102110211020,
1022111020112220,
1022202010111020,
3000300012221222, //41
#GOGOEND
1002102010211020,
1002102010211020,
1002102010211020,
1212101011011022,
2001201010212010,
2012101022022020,
1002102010211020,
100100200200100200100000100000200000101010100000,
3,
0, //51
#END
COURSE:Hard
LEVEL:5
BALLOON:
SCOREINIT:780,3710
SCOREDIFF:255
#START
0,
#GOGOSTART
33,
3022,
33,
22202000,
3232,
30102220,
3232,
11102220, //9
#GOGOEND
30121012,
10101110,
10121012,
1010100011011010,
10121012,
1020100022022020,
10121012,
1020100020002220, //17
100000000000100000200000500000000000000000000008,
00012120,
100000000000100000200000500000000008000000000000,
1020111020000000,
100000000000100000200000500000000008000000000000,
10121212,
00212120,
3330, //25
#GOGOSTART
10121012,
10121112,
10121012,
12121001,
20212021,
21212120,
2022200010111000,
500000000000000000000000000000000008000000000000, //33
10121012,
10121112,
10121012,
12121001,
20212021,
21212020,
2022202010111010,
3344, //41
#GOGOEND
30121012,
12101210,
10121012,
1010100011011010,
10121012,
1020100022022020,
10121012,
3000300011111110,
3,
0, //51
#END
COURSE:Normal
LEVEL:4
BALLOON:15
SCOREINIT:950,7080
SCOREDIFF:450
#START
0,
#GOGOSTART
33,
3,
33,
4440,
33,
3022,
33,
4444, //9
#GOGOEND
31,
1110,
22,
2220,
32,
1120,
21,
1120, //17
100000000000100000000000500000000000000000000008,
0011,
100000000000100000000000500000000008000000000000,
2220,
100000000000100000000000500000000008000000000000,
1111,
0222,
3330, //25
#GOGOSTART
10011001,
10011010,
10011001,
1110,
20022002,
20202220,
7,
0008, //33
10011001,
10022020,
10011002,
2220,
10011002,
20202220,
10101110,
3344, //41
#GOGOEND
31,
1110,
22,
2220,
12,
1120,
1122,
3344,
3,
0, //51
#END
COURSE:Easy
LEVEL:2
BALLOON:12
SCOREINIT:810,10280
SCOREDIFF:618
#START
0,
#GOGOSTART
33,
3,
33,
600000000000000000000000000008000000000000000000,
33,
3,
33,
44, //9
#GOGOEND
3,
11,
11,
1110,
4,
22,
22,
2220, //17
100000000000000000000000500000000000000000000008,
0011,
11,
1110,
22,
2220,
11,
3330, //25
#GOGOSTART
11,
1011,
11,
1110,
22,
2022,
7,
0008, //33
11,
1011,
11,
1110,
22,
2022,
22,
3333, //41
#GOGOEND
3,
11,
11,
1110,
22,
2220,
12,
600000000000000000000000000000000000000000000008,
0,
0, //51
#END