tja
This commit is contained in:
408
tja/149.tja
Normal file
408
tja/149.tja
Normal file
@@ -0,0 +1,408 @@
|
||||
//TJADB Project
|
||||
TITLE:Saturday Taiko Fever
|
||||
TITLEJA:サタデー太鼓フィーバー
|
||||
SUBTITLE:--Yuri Misumi feat. micazo
|
||||
BPM:130
|
||||
WAVE:Saturday Taiko Fever.ogg
|
||||
OFFSET:-4.010
|
||||
DEMOSTART:7.699
|
||||
|
||||
COURSE:Edit
|
||||
LEVEL:8
|
||||
SCOREINIT:530
|
||||
SCOREDIFF:120
|
||||
|
||||
|
||||
#START
|
||||
|
||||
|
||||
1010212102000010,
|
||||
100000300000222111222111,//2
|
||||
|
||||
#GOGOSTART
|
||||
1021120120120210,
|
||||
1022220120210210,
|
||||
1021120120120210,
|
||||
1022220120030030,
|
||||
,
|
||||
1122010101012020,
|
||||
|
||||
#GOGOEND
|
||||
1022002200220222,
|
||||
1010110101112212,
|
||||
1022002200220222,
|
||||
1010110101112212,
|
||||
1000200022112211,
|
||||
0010200101112212,
|
||||
1000201122112121,
|
||||
0010200020020220,
|
||||
1010110110101101,
|
||||
1011220211220210,
|
||||
1010110110101101,
|
||||
1020001201112212,
|
||||
1000200022112211,
|
||||
0010201101112212,
|
||||
1020201122112121,
|
||||
000000100000200000200100000000002020200000200200,
|
||||
1010110110101101,
|
||||
1011220211220210,
|
||||
1010110110210210,
|
||||
1020102010221022,
|
||||
1222102212221022,
|
||||
100200200200100200200200102020202020100100100100,
|
||||
1020120102021220,
|
||||
1020120122030120,
|
||||
1020120102021220,
|
||||
1020120122030120,
|
||||
1020120102021220,
|
||||
1020120122030120,
|
||||
1202102211011010,
|
||||
1210102030403000,
|
||||
1100200022020220,
|
||||
1020110211221120,
|
||||
1100200022020220,
|
||||
1020220122112210,
|
||||
1100200022020220,
|
||||
1020110211221120,
|
||||
1100200022020220,
|
||||
2211020220030060,
|
||||
0008,
|
||||
100200000100200200000100200200000200000020202020,//48
|
||||
|
||||
#GOGOSTART
|
||||
1021120120120210,
|
||||
1022220120210210,
|
||||
1021120120120210,
|
||||
1022220120210210,
|
||||
1021120120120210,
|
||||
1022220120210210,
|
||||
1021120120120210,
|
||||
1022220120210210,//56
|
||||
|
||||
#GOGOEND
|
||||
3030221010210120,
|
||||
300000300000202020200000200000200000200100000000,
|
||||
4011220030030030,
|
||||
|
||||
|
||||
#END
|
||||
|
||||
|
||||
COURSE:Oni
|
||||
LEVEL:7
|
||||
BALLOON:12,12,12,12
|
||||
SCOREINIT:690
|
||||
SCOREDIFF:160
|
||||
|
||||
|
||||
#START
|
||||
|
||||
|
||||
1010212102000010,
|
||||
1000300000111111,//2
|
||||
|
||||
#GOGOSTART
|
||||
1002001120010010,
|
||||
0002001120010010,
|
||||
0002001120010010,
|
||||
0002001110010030,
|
||||
,
|
||||
1122010101012020,
|
||||
|
||||
#GOGOEND
|
||||
1022122101201221,
|
||||
0010002202202210,
|
||||
0022122101201221,
|
||||
0010200100101101,
|
||||
0020201122010121,
|
||||
0020200100112201,
|
||||
0020201122010121,
|
||||
0011011010101110,
|
||||
1010220101101001,
|
||||
0020001102020101,
|
||||
1010220101101001,
|
||||
0020001100101101,
|
||||
0020201122010121,
|
||||
0020200100112201,
|
||||
0020201122010121,
|
||||
0011211221122112,
|
||||
1020120101201003,
|
||||
0020200100100210,
|
||||
0010200100102210,
|
||||
1001200100102001,
|
||||
1001200100102001,
|
||||
2101210121211111,
|
||||
0000300000101105,
|
||||
0000800022010220,
|
||||
0000300000101105,
|
||||
0000800022010220,
|
||||
1010101210101012,
|
||||
1012101222010220,
|
||||
1101002011010020,
|
||||
1112102011121020,
|
||||
1110700000000080,
|
||||
0000220100202112,
|
||||
1110700000000080,
|
||||
0000220100201122,
|
||||
1110700000000080,
|
||||
0000220100202112,
|
||||
1110700000000080,
|
||||
0000100010010030,
|
||||
,
|
||||
1201020102010201,//48
|
||||
|
||||
#GOGOSTART
|
||||
1002001120010010,
|
||||
0002001120010010,
|
||||
0002001120010010,
|
||||
0002001110010010,
|
||||
0011101110010010,
|
||||
0011101110020020,
|
||||
0011210121121120,
|
||||
0011210121211212,//56
|
||||
|
||||
#GOGOEND
|
||||
11000000,
|
||||
11000000,
|
||||
0011110010010030,
|
||||
|
||||
|
||||
#END
|
||||
|
||||
|
||||
COURSE:Hard
|
||||
LEVEL:8
|
||||
BALLOON:10,10,10,10
|
||||
SCOREINIT:830
|
||||
SCOREDIFF:238
|
||||
|
||||
#START
|
||||
11000001,
|
||||
1300,//2
|
||||
|
||||
#GOGOSTART
|
||||
1022011010010010,
|
||||
0022011010010010,
|
||||
0022011010010010,
|
||||
0022011010010030,
|
||||
,
|
||||
1111010101011010,
|
||||
|
||||
#GOGOEND
|
||||
1022002200220222,
|
||||
02000000,
|
||||
1022002200220222,
|
||||
0020001000101101,
|
||||
0020200011002022,
|
||||
0000002000202202,
|
||||
0020200011002022,
|
||||
02,
|
||||
1010220100001002,
|
||||
0022220022220000,
|
||||
1010220100001002,
|
||||
0020000100101101,
|
||||
0020200011002022,
|
||||
0000002000202202,
|
||||
0020200011002022,
|
||||
01,
|
||||
1010220100001002,
|
||||
02002000,
|
||||
12,
|
||||
12121212,
|
||||
1102110211021102,
|
||||
1102110011111111,
|
||||
0000300000101105,
|
||||
0000800022020220,
|
||||
0000300000101105,
|
||||
0000800022020220,
|
||||
1010100000101001,
|
||||
0000000022020220,
|
||||
1102000011020000,
|
||||
11101110,
|
||||
00700008,
|
||||
0000220200201111,
|
||||
00700008,
|
||||
0000220200201111,
|
||||
00700008,
|
||||
0000220200201111,
|
||||
00700008,
|
||||
0000100010010030,
|
||||
,
|
||||
1201111050008000,//48
|
||||
|
||||
#GOGOSTART
|
||||
1022011010020010,
|
||||
1022011020020010,
|
||||
1022011010020010,
|
||||
1022011020020010,
|
||||
1022011010020010,
|
||||
1022011020020010,
|
||||
1022011010020010,
|
||||
1022011020020010,//56
|
||||
|
||||
#GOGOEND
|
||||
11000000,
|
||||
11000000,
|
||||
0011110010010030,
|
||||
,
|
||||
,
|
||||
,
|
||||
#END
|
||||
|
||||
COURSE:Normal
|
||||
LEVEL:6
|
||||
BALLOON:10,10,10,10
|
||||
SCOREINIT:1230
|
||||
SCOREDIFF:475
|
||||
|
||||
#START
|
||||
11000001,
|
||||
1300,//2
|
||||
|
||||
#GOGOSTART
|
||||
1000000010010010,
|
||||
0000000010010010,
|
||||
0000000010010010,
|
||||
0000000030030030,
|
||||
,
|
||||
3,
|
||||
|
||||
#GOGOEND
|
||||
1000200010010010,
|
||||
0200,
|
||||
1000200010010010,
|
||||
0200,
|
||||
02205000,
|
||||
80020200,
|
||||
02205000,
|
||||
81,
|
||||
1010100200000000,
|
||||
02202000,
|
||||
1010100200000000,
|
||||
02202000,
|
||||
02205000,
|
||||
80020200,
|
||||
02205000,
|
||||
81,
|
||||
1010100200000000,
|
||||
02202000,
|
||||
12,
|
||||
1212,
|
||||
1212,
|
||||
1010100050000008,
|
||||
0000300000101005,
|
||||
00800220,
|
||||
0000300000101005,
|
||||
00800220,
|
||||
11100010,
|
||||
11100010,
|
||||
1212,
|
||||
11101110,
|
||||
00700008,
|
||||
0000200200001001,
|
||||
00700008,
|
||||
0000200200001001,
|
||||
00700008,
|
||||
0000200200001001,
|
||||
00700008,
|
||||
0000000030030030,
|
||||
,
|
||||
1158,//48
|
||||
|
||||
#GOGOSTART
|
||||
1000000010010010,
|
||||
0000000010010010,
|
||||
0000000010010010,
|
||||
0000000010010010,
|
||||
0000000020020020,
|
||||
0000000020020020,
|
||||
0000000020020020,
|
||||
0000000010010010,//56
|
||||
|
||||
#GOGOEND
|
||||
11000000,
|
||||
11000000,
|
||||
1000200010010030,
|
||||
,
|
||||
,
|
||||
,
|
||||
#END
|
||||
|
||||
COURSE:Easy
|
||||
LEVEL:4
|
||||
BALLOON:6,6,6,6
|
||||
SCOREINIT:1150
|
||||
SCOREDIFF:728
|
||||
|
||||
#START
|
||||
,
|
||||
,//2
|
||||
|
||||
#GOGOSTART
|
||||
00001001,
|
||||
00002002,
|
||||
00001001,
|
||||
00002002,
|
||||
,
|
||||
,
|
||||
|
||||
#GOGOEND
|
||||
11,
|
||||
11000000,
|
||||
11,
|
||||
11000000,
|
||||
00201001,
|
||||
,
|
||||
00201001,
|
||||
,
|
||||
12,
|
||||
1,
|
||||
12,
|
||||
1,
|
||||
00102001,
|
||||
,
|
||||
00102001,
|
||||
,
|
||||
12,
|
||||
1,
|
||||
12,
|
||||
1111,
|
||||
1111,
|
||||
1111,
|
||||
1001,
|
||||
1011,
|
||||
1001,
|
||||
1011,
|
||||
1001,
|
||||
1011,
|
||||
11,
|
||||
11,
|
||||
00700008,
|
||||
0011,
|
||||
00700008,
|
||||
0011,
|
||||
00700008,
|
||||
0011,
|
||||
00700008,
|
||||
00000001,
|
||||
,
|
||||
,//48
|
||||
|
||||
#GOGOSTART
|
||||
10001001,
|
||||
00002002,
|
||||
00001001,
|
||||
00002002,
|
||||
00001001,
|
||||
00002002,
|
||||
00001001,
|
||||
01,
|
||||
|
||||
#GOGOEND
|
||||
11000000,
|
||||
11000000,
|
||||
10001001,
|
||||
,
|
||||
,
|
||||
,
|
||||
#END
|
||||
Reference in New Issue
Block a user