This commit is contained in:
2026-03-04 23:59:27 +09:00
parent 6e0312f5b4
commit 4b4e2b8c98
1128 changed files with 668765 additions and 0 deletions

746
tja/164.tja Normal file
View File

@@ -0,0 +1,746 @@
//TJADB Project
TITLE:Got more raves?
TITLEJA:Got more raves?
SUBTITLE:--E.G.G./GROOVE COASTER
SUBTITLEJA:E.G.G 「グルーヴコースター」より
BPM:266
WAVE:Got more raves.ogg
OFFSET:-3.015
DEMOSTART:45.862
COURSE:Edit
LEVEL:10
BALLOON:20,10,12,14,16,12
SCOREINIT:450
SCOREDIFF:103
#START
#MEASURE 6/4
#SCROLL 0.75
2,
2,
2,
#MEASURE 11/4
1212221121221212002211,
#MEASURE 12/4
202010201010200010102020100022222222200020002000,
#MEASURE 6/4
112211210112,
021121121122,
021121121122,
012121103040,
211211211202,
112112120211,
211212012212,
#MEASURE 3/4
211020,//13
#MEASURE 6/4
#GOGOSTART
211211211202,
112211120211,
221112012212,
#MEASURE 3/4
212020,
#MEASURE 6/4
201110201010102010200020,
111020201020102000201110,
202010201020001022201022,
#MEASURE 3/4
201022202220,//21
#GOGOEND
#MEASURE 7/4
11010210111000,
11010210111000,
11010121221122,
0010100010202010202000222000,
0010201020112000200020112000,
2000201120002000201120700000,
0000080,
0000202010102010102022201000,
#MEASURE 6/4
200202111000,
#SCROLL 0.65
#MEASURE 5/4
3002021120,
10000020002220102020,
1002021120,
10000020002220102020,
1002021120,
10000020002220102020,
#MEASURE 6/4
120202111200,
110300110300,
#MEASURE 5/4
10001020002011102010,
10201010002220102020,
10001020002011102010,
10201010002220102020,
10001020002011102010,
10201010002011102000,
#SCROLL 0.82
#MEASURE 11/4
10102010201010001000100000002220202010002000,
#MEASURE 12/4
000010102010201010001000200010002220202010002000,
#MEASURE 11/4
00101000102010102010001000002220202010002000,
#MEASURE 12/4
000000101020102010100010001000201000222010002000,
#SCROLL 0.75
#MEASURE 10/4
7000870008,
7000870008,
11211010101121011210,
1010201010001000100010102010222022202000,//52
#GOGOSTART
#MEASURE 6/4
101110101020100011101010,
201110101000102011101010,
101000101110102011101010,
#MEASURE 3/4
001011101000,
#MEASURE 6/4
101110101020102011101010,
201020101020111010201010,
101110101020102010201110,
#MEASURE 3/4
201011101000,
#MEASURE 6/4
700008,//61
#SCROLL 0.65
#MEASURE 5/4
#GOGOEND
1002012022,
10000020002220102020,
1002012022,
10000020002220102020,
1002012022,
10000020002220102020,
#MEASURE 6/4
120202111200,
111000300000111000300000,
#SCROLL 0.75
#MEASURE 5/4
10001020002011102010,
10201010002220102020,
10001020002011102010,
10201010002220102020,
10001020002011102010,
10202010202022201020,
#MEASURE 4/4
1020111010201010,
#MEASURE 6/4
102011101010222020101010,
#MEASURE 2/4
22,//78
#MEASURE 6/4
#SCROLL 0.82
#GOGOSTART
201110202010201020111020,
201020201110201110202010,
202010201110201020201020,
#MEASURE 3/4
201120102000,
#MEASURE 6/4
201110202010201020111020,
201020201110201110202010,
202010201110201022201022,
201120102000
#GOGOEND
000000000000,
#END
COURSE:Oni
LEVEL:9
BALLOON:20,8,10,12,14,12
SCOREINIT:480
SCOREDIFF:113
#START
#MEASURE 6/4
#SCROLL 0.75
2,
2,
2,
#MEASURE 11/4
1212201020221212002211,
#MEASURE 12/4
200010201010200010002000100022222222200020002000,
#MEASURE 6/4
112210210112,
021021101122,
012122101122,
012122103040,
210210101202,
102110120210,
211012021021,
#MEASURE 3/4
122,//13
#MEASURE 6/4
#GOGOSTART
120211201202,
102211120210,
221112012212,
#MEASURE 3/4
211020,
#MEASURE 6/4
210211201202,
102112120210,
211212012212,
#MEASURE 3/4
211020,//21
#GOGOEND
#MEASURE 7/4
11010210101000,
11010210101000,
11010211221122,
0010100010102010102000222000,
01121120202120,
10212020212700,
0000080,
0000202010102010000022201000,
#MEASURE 6/4
200202111000,
#SCROLL 0.65
#MEASURE 5/4
3002021120,
1002021122,
1002021120,
1002022122,
1002021120,
1002022122,
#MEASURE 6/4
120202101200,
110300110300,
#MEASURE 5/4
1012021121,
1211022122,
1012021121,
1211022122,
1012021121,
1211021120,
#SCROLL 0.75
#MEASURE 11/4
1121011210100022221020,
#MEASURE 12/4
001121011210201022221020,
#MEASURE 11/4
0112101101010022221020,
#MEASURE 12/4
000112101101010210221020,
#SCROLL 0.75
#MEASURE 10/4
7000870008,
7000870008,
11011010101101011010,
11011010101101121210,//52
#GOGOSTART
#MEASURE 6/4
110112101211,
012110101211,
110112101211,
#MEASURE 3/4
011210,
#MEASURE 6/4
110112101211,
212112101211,
110112121211,
#MEASURE 3/4
211212,
#MEASURE 6/4
700008,//61
#SCROLL 0.65
#MEASURE 5/4
#GOGOEND
1002002022,
1002022122,
1002002022,
1002022122,
1002002022,
1002022122,
#MEASURE 6/4
120202101200,
110300110300,
#SCROLL 0.75
#MEASURE 5/4
1222011120,
1222011220,
1221021120,
1221221221,
1222011220,
1221021120,
#MEASURE 4/4
12121211,
#MEASURE 6/4
101020102010222020101010,
#MEASURE 2/4
22,//78
#MEASURE 6/4
#SCROLL 0.82
#GOGOSTART
211211211212,
212212121221,
221221212212,
#MEASURE 3/4
212020,
#MEASURE 6/4
211211211212,
212212121221,
221221212212,
212040
#GOGOEND
000000,
#END
COURSE:Hard
LEVEL:8
BALLOON:15,3,5,8,10,10
SCOREINIT:470
SCOREDIFF:110
#START
#MEASURE 6/4
#SCROLL 0.75
2,
2,
2,
#MEASURE 11/4
1210201020201210202220,
#MEASURE 12/4
201210201020102222202020,
#MEASURE 6/4
112010110112,
011020110112,
011020110112,
011022103040,
220220220202,
202202020220,
220220202202,
#MEASURE 3/4
222,//13
#MEASURE 6/4
#GOGOSTART
220110220102,
201102010220,
110220102201,
#MEASURE 3/4
122,
#MEASURE 6/4
220110220102,
201102010220,
110220102201,
#MEASURE 3/4
122,//21
#GOGOEND
#MEASURE 7/4
11010110101000,
11010110101000,
11010110101022,
01102201110000,
11201120020120,
02012002012700,
0000080,
00222211002220,
#MEASURE 6/4
200202101000,
#SCROLL 0.65
#MEASURE 5/4
3002001020,
1002001120,
1002001020,
1002001110,
1002001020,
1002001110,
#MEASURE 6/4
110201101200,
110300110300,
#MEASURE 5/4
1002001120,
1002002220,
1002001120,
1002002220,
1002001120,
1002002220,
#SCROLL 0.82
#MEASURE 11/4
1101011010100022101020,
#MEASURE 12/4
001101011010101022101020,
#MEASURE 11/4
0110101101010022101020,
#MEASURE 12/4
000110101101010110221020,
#SCROLL 0.75
#MEASURE 10/4
7000870008,
7000870008,
11011010101101011010,
11011010101101121210,//52
#GOGOSTART
#MEASURE 6/4
110110101101,
010110101011,
110110101011,
#MEASURE 3/4
011010,
#MEASURE 6/4
110110101011,
010110101011,
110110101011,
#MEASURE 3/4
011111,
#MEASURE 6/4
700008,//61
#SCROLL 0.65
#MEASURE 5/4
#GOGOEND
1002002020,
1002002020,
1002002020,
1002002220,
1002002020,
1002002220,
#MEASURE 6/4
110201101200,
110300110300,
#SCROLL 0.75
#MEASURE 5/4
1202011020,
1202011020,
1202011020,
1202022020,
1202011020,
1202022020,
#MEASURE 4/4
12121011,
#MEASURE 6/4
101210222210,
#MEASURE 2/4
22,//78
#MEASURE 6/4
#SCROLL 0.82
#GOGOSTART
110110101011,
010110101011,
110110101011,
#MEASURE 3/4
011010,
#MEASURE 6/4
110110101011,
010110101011,
110110101011,
011030
#GOGOEND
000000,
#END
COURSE:Normal
LEVEL:7
BALLOON:10,21,5
#START
#MEASURE 6/4
#SCROLL 0.65
2,
2,
2,
#MEASURE 11/4
1010001010001010002220,
#MEASURE 12/4
201010001010002220200000,
#MEASURE 6/4
102010001001,
002010201001,
002010201001,
021230,
112112,
112112,
112112,
#MEASURE 3/4
110,//13
#MEASURE 6/4
#GOGOSTART
122122,
122122,
122122,
#MEASURE 3/4
120,
#MEASURE 6/4
212212,
212212,
212212,
#MEASURE 3/4
212,//21
#GOGOEND
#MEASURE 7/4
10010010100000,
10010010100000,
10010010100020,
02001010200000,
0112012,
0120127,
0000080,
00202010002220,
#MEASURE 6/4
100100101000,
#MEASURE 5/4
1002001000,
1002001000,
1002001000,
1002002020,
1002001000,
1002002020,
#MEASURE 6/4
100200101000,
110300110300,
#MEASURE 5/4
1002001010,
1002001020,
1002001010,
1002001020,
1002001010,
1002001020,
#MEASURE 11/4
1001001010100000001020,
#MEASURE 12/4
001001001010201000001020,
#MEASURE 11/4
0100101001010000001020,
#MEASURE 12/4
000100102001010010001020,
#MEASURE 10/4
9,
0900080000,
10010010101001001010,
10010010101001001010,//52
#GOGOSTART
#MEASURE 6/4
220220110110,
220220110110,
220220110110,
#MEASURE 3/4
220000,
#MEASURE 6/4
220110220110,
220110220110,
220110220110,
#MEASURE 3/4
220000,
#MEASURE 6/4
700008,//61
#MEASURE 5/4
#GOGOEND
2002002000,
2002002020,
2002002000,
2002002020,
2002002020,
2002002020,
#MEASURE 6/4
200200202000,
110300110300,
#MEASURE 5/4
1002001010,
1002002020,
1002001010,
1002002020,
1002001010,
1002002020,
#MEASURE 4/4
22022011,
#MEASURE 6/4
011010222010,
#MEASURE 2/4
220,//78
#MEASURE 6/4
#SCROLL 0.82
#GOGOSTART
220220110110,
220220110110,
220220110110,
#MEASURE 3/4
220000,
#MEASURE 6/4
220110220110,
220110220110,
220110220110,
222040
#GOGOEND
000000,
,
#END
COURSE:Easy
LEVEL:5
BALLOON:8,16,5
#START
#MEASURE 6/4
#SCROLL 0.65
2,
2,
2,
#MEASURE 11/4
11011011022,
#MEASURE 12/4
011011022200,
#MEASURE 6/4
100010001001,
000010001001,
000010001001,
013,
112112,
112112,
112112,
#MEASURE 3/4
110,//13
#MEASURE 6/4
#GOGOSTART
112112,
112112,
112112,
#MEASURE 3/4
110,
#MEASURE 6/4
122122,
122122,
122122,
#MEASURE 3/4
120,//21
#GOGOEND
#MEASURE 7/4
10010010000000,
10010010000000,
10010010000020,
02002020200000,
0112022,
0220227,
0000080,
0221022,
#MEASURE 6/4
100100101000,
#MEASURE 5/4
1002001000,
1002001000,
1002001000,
1002001000,
1002001000,
1002001000,
#MEASURE 6/4
200200202000,
1313,
#MEASURE 5/4
1002001000,
1002001010,
1002001000,
1002001010,
1002001000,
1002001010,
#MEASURE 11/4
1001001010100000000000,
#MEASURE 12/4
001001001010101000000000,
#MEASURE 11/4
0100101001010000000000,
#MEASURE 12/4
000100101001010010000000,
#MEASURE 10/4
9,
0900080000,
10010010101001001010,
10010010101001002020,//52
#GOGOSTART
#MEASURE 6/4
112112,
112112,
112112,
#MEASURE 3/4
110,
#MEASURE 6/4
122122,
122122,
122122,
#MEASURE 3/4
122,
#MEASURE 6/4
700008,//61
#MEASURE 5/4
#GOGOEND
20020,
20022,
20020,
20022,
20020,
20022,
#MEASURE 6/4
200200202000,
1313,
#MEASURE 5/4
1002001000,
1002001010,
1002001000,
1002001010,
1002001000,
1002001010,
#MEASURE 4/4
1212,
#MEASURE 6/4
111221,
#MEASURE 2/4
2,//78
#MEASURE 6/4
#SCROLL 0.82
#GOGOSTART
112112,
112112,
112112,
#MEASURE 3/4
110,
#MEASURE 6/4
122122,
122122,
122122,
123
#GOGOEND
000,
,
#END