This commit is contained in:
2026-03-04 23:59:27 +09:00
parent 6e0312f5b4
commit 4b4e2b8c98
1128 changed files with 668765 additions and 0 deletions

393
tja/166.tja Normal file
View File

@@ -0,0 +1,393 @@
//TJADB Project
TITLE:Ninjin Nin
TITLEJA:にんじんにん
SUBTITLE:--Toyonaga GontaP feat. GUMI
SUBTITLEJA:豊永ごんたP feat.GUMI
BPM:160
WAVE:Ninjin Nin.ogg
OFFSET:-1.703
DEMOSTART:85.690
COURSE:Oni
LEVEL:8
SCOREINIT:540
SCOREDIFF:140
#START
1000100100202000,
1010101102202000,
1000100100202000,
1000100010000000200000002000000050000000000000000000000800000000,
1010010102222020,
1011100202202020,
1010010102222020,
1110101020202220,
1010010102112020,
1011100201102020,
1010010102112020,
1000100010000000200000002000000050000000000000000000000800000000,
1010010101122020,
1011100101202020,
1010010101122020,
2202220221022110,
1000100110202000,
1010100010020020,
1010010101221010,
1011100102201010,
1001100010222011,
1010100010020020,
1011102220115000,
0000000000000000000000000000000000000000000000080000000000000000,
1000100110202000,
1010100010020020,
1010010101221010,
1011100102201010,
1001100010112000,
1010100010020020,
1011102220115000,
0000000000000000000000000000000000000000000000080000000000000000,
1000101110200020,
1010101100202000,
1012202010102020,
1000000000000000500000000000000000000008000000001000000000000000,
1011100010222020,
1010101100202000,
1012202010102020,
5000000000000000000000000000000000000008000000000000000000000000,//40
#GOGOSTART
1012201010122010,
1012201000222010,
1012201000222010,
1012201220102000,
1012201010122010,
1012201000222010,
1022102010221020,
3330,
1011202010112020,
1011201000222010,
1011201000222010,
1011201120102000,
1011201010112010,
1011201000222010,
1021102010211020,
3330,
#GOGOEND
2020020202222020,
2022200202202020,
2020022202222020,
2220202022222020,
2020020202222020,
2022200202202220,
2020022202222020,
2220202022222020,
#GOGOSTART
#SCROLL 1.2
1022102210221022,
1022102210221020,
#SCROLL 1.4
2011201120112011,
2011201120112010,
#SCROLL 1.6
1012101210121012,
1012101210121010,
2021202120212020,
#SCROLL 2
1122112030000000,
#GOGOEND
#END
COURSE:Hard
LEVEL:5
BALLOON:13,13
SCOREINIT:600
SCOREDIFF:160
#START
10100220,
1010100002202000,
10100220,
1000000010000000100000000000000050000000000000080000000000000000,
10100220,
1010100002202000,
10100220,
1000000010000000100000000000000050000000000000080000000000000000,
1010010100002000,
1010100002202000,
1010010100002000,
2000000020000000200000000000000050000000000000080000000000000000,
1010010100002000,
1010100002202000,
1010010100002000,
1000100000000000100010000000000050000000000000080000000000000000,
10100220,
1010100020020020,
7,
8,
10100220,
1010100020020020,
10110105,
0000000000000000000000000000000000000008000000000000000000000000,
10100220,
1010100020020020,
7,
8,
10100220,
1010100020020020,
10110105,
0000000000000000000000000000000000000008000000000000000000000000,
10112202,
2010101100202000,
11201120,
1000000000000000500000000000000000000000000000080000000000000000,
10112202,
2010101100202000,
11201120,
5000000000000000000000000000000000000008000000000000000000000000,//40
#GOGOSTART
1000101110202000,
1000101110202000,
1000101110202000,
1011101110202000,
1000101110202000,
1000101110202000,
1022201110222000,
3330,
1000201110202000,
1000201110202000,
1000201110202000,
1011101110202000,
1000201110202000,
1000201110202000,
1022201110222000,
3330,//56
#GOGOEND
2222,
1111,
2211,
1122,
1111,
2222,
2211,
22022020,//64
#SCROLL 1.2
#GOGOSTART
22221111,
22111122,
11112222,
1010202022022020,
#SCROLL 1.3
22221111,
#SCROLL 1.4
22111122,
#SCROLL 1.5
11112222,
#SCROLL 1.6
1110111030000000,//72
#GOGOEND
,
#END
COURSE:Normal
LEVEL:4
BALLOON:10,10
SCOREINIT:640
SCOREDIFF:185
#START
11,
11100000,
11,
11100000,
11,
11100000,
11,
5000000000000000000000000000000000000008000000000000000000000000,
1202,
11100020,
1202,
11100000,
1202,
11100020,
1212,
5000000000000000000000000000000000000008000000000000000000000000,
10101110,
11111000,
7,
8,
10101110,
11111000,
10110050,
0000000000000000000000000000000000000008000000000000000000000000,
10101110,
11111000,
7,
8,
10101110,
11111000,
10110050,
0000000000000000000000000000000000000008000000000000000000000000,
10111000,
11102000,
10101110,
1122,
10111000,
11102000,
10101110,
5000000000000000000000000000000000000008000000000000000000000000,//40
#GOGOSTART
11101010,
10011000,
10011000,
2222,
11101010,
10011000,
33,
3330,
11101010,
10011000,
10011000,
2222,
11101010,
10011000,
33,
3330,//56
#GOGOEND
1111,
2222,
1111,
2222,
1122,
1122,
1122,
1122,//64
#SCROLL 1.2
#GOGOSTART
11101110,
22202220,
#SCROLL 1.3
11101110,
22202220,
#SCROLL 1.4
11101110,
22202220,
#SCROLL 1.5
11101110,
3330,//72
#GOGOEND
,
#END
COURSE:Easy
LEVEL:3
BALLOON:8,8
SCOREINIT:540
SCOREDIFF:175
#START
11,
1100,
11,
1100,
11,
1100,
11,
5000000000000000000000000000000000000008000000000000000000000000,
12,
1101,
12,
1100,
12,
1101,
12,
5000000000000000000000000000000000000008000000000000000000000000,
11,
1110,
7,
8,
11,
1110,
1105,
0000000000000000000000000000000000000008000000000000000000000000,
12,
1110,
7,
8,
12,
1110,
1105,
0000000000000000000000000000000000000008000000000000000000000000,
11,
1110,
22,
1111,
11,
1110,
22,
5000000000000000000000000000000000000008000000000000000000000000,//40
#GOGOSTART
1011,
1001,
1001,
1111,
1011,
1001,
11,
3330,
1011,
1001,
1001,
1111,
1011,
1001,
11,
3330,//56
#GOGOEND
1110,
1110,
1110,
2220,
1110,
1110,
1110,
2220,//64
#SCROLL 1.1
#GOGOSTART
3330,
3330,
#SCROLL 1.2
3330,
4440,
#SCROLL 1.3
3330,
3330,
#SCROLL 1.4
3330,
3330,//72
#GOGOEND
,
#END