This commit is contained in:
2026-03-04 23:59:27 +09:00
parent 6e0312f5b4
commit 4b4e2b8c98
1128 changed files with 668765 additions and 0 deletions

792
tja/167.tja Normal file
View File

@@ -0,0 +1,792 @@
//TJADB Project
TITLE:Amanojaku
TITLEJA:天ノ弱
SUBTITLE:--164 feat. GUMI
SUBTITLEJA:164 feat.GUMI
BPM:200
WAVE:Amanojaku.ogg
OFFSET:-1.365
DEMOSTART:66.370
COURSE:Oni
LEVEL:8
SCOREINIT:370
SCOREDIFF:95
#START
#BARLINEOFF
#MEASURE 1/4
#LYRIC Boku ga zutto mae kara omotteru koto o hanasou ka?
,
#BARLINEON
#MEASURE 4/4
11201021,
00202021,
11201122,
112010
#LYRIC Tomodachi ni modoretara kore ijou wa mou nozomanai sa
00,
11202021,
00212121,
1010202010102022,
112211221122
#LYRIC Kimi ga sore de ii nara boku datte sore de kamawanai sa
1111,
11201120,
11221120,
11201120,
112211
#LYRIC Usotsuki no boku ga haita hantai kotoba no ai no uta
22,
11201120,
11221120,
11201120,
1010201020112211,
2010201011102010,
#LYRIC
0010201011102000,
1022202011101020,
0022202010111010,
1010201011102010,
0010201011102000,
2220201110101020,
0022202011101110,
1010201011102010,
0010201011102000,
1022201011101020,
0022202010111010,
1010201011102010,
0010201011102020,
1110101011101010,
221120
#LYRIC Kyou wa kotchi no chihou wa doshaburi no seiten deshita
14,
40112021,
0020101022102000,
10212021,
002010112000
#LYRIC Kinou mo zutto hima de ichinichi mankitsu shite mashita
1010,
20212021,
01202120,
12112022,
100011101000
#LYRIC Betsu ni kimi no koto nante kangaete nanka inai sa
2020,
20112021,
0011101020002020,
10212022,
100011101000
#LYRIC Iya demo chotto hontou wa kangaeteta ka mo nante
2020,
10112021,
0022100022102010,
1010201022221000,
201020102
#LYRIC Meriigourando mitai ni mawaru
010,
#MEASURE 3/4
400200202,
100200202,
100000000000100000000200000000001000,
200
#LYRIC Boku no atamannaka wa mou guruguru sa
101101,
#BPMCHANGE 202
#SCROLL 0.9900990099
202100,
402110,
#MEASURE 4/4
#BPMCHANGE 203
#SCROLL 0.98522167487
1000201120001111,
#BPMCHANGE 205
#SCROLL 0.97560975609
20001111
#LYRIC Kono ryoute kara koboresou na hodo
21112111,
#GOGOSTART
#BPMCHANGE 206
#SCROLL 0.9708737864
20210121,
#BPMCHANGE 205
#SCROLL 0.97560975609
1110201011102010,
1110201011102000,
10001010
#LYRIC Kimi ni moratta ai wa doko ni suteyou?
11102010,
2011201020112010,
2011201020112010,
1011101010111010,
10222020
#LYRIC Kagiri no aru shoumouhin nante boku wa
10001010,
20210121,
1110201011102010,
1110201011102000,
#BPMCHANGE 202
#SCROLL 0.9900990099
1010111110101111,
#GOGOEND
21011011,
00101000
#LYRIC Iranai yo
20111010,
22022022,
10002020
#LYRIC Kono ryoute kara koboresou na hodo
21112111,
#GOGOSTART
#BPMCHANGE 205
#SCROLL 0.97560975609
20210121,
1110201011102010,
1110201011102000,
10001010
#LYRIC Kimi ni watasu ai o dare ni yuzurou?
11102010,
2011201020112010,
2011201020112010,
1011101010111010,
10222020
#LYRIC Sonnan doko ni mo ate ga aru wake nai daro
10001010,
20210121,
1110201011102010,
1110201011102000,
#BPMCHANGE 202
#SCROLL 0.9900990099
1010111110101111,
21011011,
00101000
#LYRIC Mada matsu yo
20111010,
22022022,
1111101020102010,
#BPMCHANGE 201
#SCROLL 0.99502487562
1010221020002010,
0010201022102010,
1010221020001020,
#LYRIC Mou ii kai?
02221111,
#BPMCHANGE 202
#SCROLL 0.9900990099
1010221020001010,
#LYRIC
0010201022102010,
1110201110102000,
1022201020222020,
1010221020002010,
0010201022102010,
1010221020001020,
02221111,
#BPMCHANGE 201
#SCROLL 0.99502487562
1010221020001010,
0010201022102010,
1110201110102000,
1022202010101020,
#GOGOEND
1010221020001010,
01212122,
#END
COURSE:Hard
LEVEL:6
BALLOON:10
SCOREINIT:440
SCOREDIFF:110
#START
#BARLINEOFF
#MEASURE 1/4
#LYRIC Boku ga zutto mae kara omotteru koto o hanasou ka?
,
#BARLINEON
#MEASURE 4/4
10001021,
0222,
11201020,
111010
#LYRIC Tomodachi ni modoretara kore ijou wa mou nozomanai sa
00,
10202021,
00212020,
11221127,
000
#LYRIC Kimi ga sore de ii nara boku datte sore de kamawanai sa
8,
11201120,
11221120,
11201120,
112211
#LYRIC Usotsuki no boku ga haita hantai kotoba no ai no uta
22,
11201120,
11221120,
11201120,
500000000000000000000000000000000008000000000000,
11201120,
#LYRIC
11201120,
11202011,
0010100010111000,
11201120,
11201120,
22202222,
0020200010111000,
11201120,
11201120,
11202011,
0010100010111000,
11201120,
11201120,
11011011,
120120
#LYRIC Kyou wa kotchi no chihou wa doshaburi no seiten deshita
20,
10210211,
10202120,
10120210,
101120
#LYRIC Kinou mo zutto hima de ichinichi mankitsu shite mashita
11,
20210021,
10202120,
10112010,
112210
#LYRIC Betsu ni kimi no koto nante kangaete nanka inai sa
22,
20220210,
10202120,
10120210,
112210
#LYRIC Iya demo chotto hontou wa kangaeteta ka mo nante
11,
20210021,
10202120,
10112010,
101010101
#LYRIC Meriigourando mitai ni mawaru
010,
#MEASURE 3/4
400200202,
122,
100102002,
1
#LYRIC Boku no atamannaka wa mou guruguru sa
00,
#BPMCHANGE 202
#SCROLL 0.9900990099
401200,
41,
#MEASURE 4/4
#BPMCHANGE 203
#SCROLL 0.98522167487
1334,
#BPMCHANGE 205
#SCROLL 0.97560975609
4
#LYRIC Kono ryoute kara koboresou na hodo
0,
#GOGOSTART
#BPMCHANGE 206
#SCROLL 0.9708737864
10210120,
#BPMCHANGE 205
#SCROLL 0.97560975609
10201120,
10210120,
1010
#LYRIC Kimi ni moratta ai wa doko ni suteyou?
1120,
20201120,
20201120,
10201122,
10001000
#LYRIC Kagiri no aru shoumouhin nante boku wa
10111000,
10210120,
10201120,
10210120,
#BPMCHANGE 202
#SCROLL 0.9900990099
1000111010001110,
#GOGOEND
11011011,
0110
#LYRIC Iranai yo
1101,
22022022,
500000000000000000000000
#LYRIC Kono ryoute kara koboresou na hodo
000000000008000000000000,
#GOGOSTART
#BPMCHANGE 205
#SCROLL 0.97560975609
10210120,
10201120,
10210120,
1010
#LYRIC Kimi ni watasu ai o dare ni yuzurou?
1120,
20201120,
20201120,
10201122,
10001000
#LYRIC Sonnan doko ni mo ate ga aru wake nai daro
10111000,
10210120,
10201120,
10210120,
#BPMCHANGE 202
#SCROLL 0.9900990099
1000111010001110,
11011011,
0110
#LYRIC Mada matsu yo
1101,
22022022,
500000000000000000000000000000000008000000000000,
#BPMCHANGE 201
#SCROLL 0.99502487562
11202021,
00212120,
11202012,
#LYRIC Mou ii kai?
0020200010111000,
#BPMCHANGE 202
#SCROLL 0.9900990099
11202021,
#LYRIC
00212120,
11011020,
02202022,
11202021,
00212120,
11202012,
0020200010111000,
#BPMCHANGE 201
#SCROLL 0.99502487562
11202021,
00212120,
11011020,
11211112,
#GOGOEND
11202021,
01212122,
#END
COURSE:Normal
LEVEL:5
BALLOON:6,4,6
SCOREINIT:620
SCOREDIFF:175
#START
#BARLINEOFF
#MEASURE 1/4
#LYRIC Boku ga zutto mae kara omotteru koto o hanasou ka?
,
#BARLINEON
#MEASURE 4/4
1202,
0222,
1212,
111
#LYRIC Tomodachi ni modoretara kore ijou wa mou nozomanai sa
0,
1202,
0222,
1212,
700
#LYRIC Kimi ga sore de ii nara boku datte sore de kamawanai sa
8,
1212,
1202,
1212,
111
#LYRIC Usotsuki no boku ga haita hantai kotoba no ai no uta
0,
1212,
1202,
1212,
1130,
1111,
#LYRIC
22,
1122,
500000000000000000000000000000000008000000000000,
1111,
22,
1122,
500000000000000000000000000000000008000000000000,
1111,
22,
1122,
500000000000000000000000000000000008000000000000,
1111,
22,
500000000000000000000000000000000000000000000008,
000
#LYRIC Kyou wa kotchi no chihou wa doshaburi no seiten deshita
0,
1120,
1202,
1120,
111
#LYRIC Kinou mo zutto hima de ichinichi mankitsu shite mashita
0,
1120,
2200,
1120,
111
#LYRIC Betsu ni kimi no koto nante kangaete nanka inai sa
0,
2110,
1100,
1122,
111
#LYRIC Iya demo chotto hontou wa kangaeteta ka mo nante
0,
1120,
1100,
1122,
500000000000000000000000000000000008
#LYRIC Meriigourando mitai ni mawaru
000000000000,
#MEASURE 3/4
202,
120,
2,
7
#LYRIC Boku no atamannaka wa mou guruguru sa
08,
#BPMCHANGE 202
#SCROLL 0.9900990099
44,
4,
#MEASURE 4/4
#BPMCHANGE 203
#SCROLL 0.98522167487
9,
#BPMCHANGE 205
#SCROLL 0.97560975609
8
#LYRIC Kono ryoute kara koboresou na hodo
0,
#GOGOSTART
#BPMCHANGE 206
#SCROLL 0.9708737864
10110020,
#BPMCHANGE 205
#SCROLL 0.97560975609
1212,
10110010,
1
#LYRIC Kimi ni moratta ai wa doko ni suteyou?
0,
1122,
1122,
1212,
1
#LYRIC Kagiri no aru shoumouhin nante boku wa
0,
10110020,
1212,
10110010,
#BPMCHANGE 202
#SCROLL 0.9900990099
11,
#GOGOEND
500000000000000000000000000000000008000000000000,
0
#LYRIC Iranai yo
1,
10010010,
500000000000000000000000
#LYRIC Kono ryoute kara koboresou na hodo
000000000008000000000000,
#GOGOSTART
#BPMCHANGE 205
#SCROLL 0.97560975609
10110020,
1212,
10110010,
1
#LYRIC Kimi ni watasu ai o dare ni yuzurou?
0,
1122,
1122,
1212,
1
#LYRIC Sonnan doko ni mo ate ga aru wake nai daro
0,
10110020,
1212,
10110010,
#BPMCHANGE 202
#SCROLL 0.9900990099
11,
500000000000000000000000000000000008000000000000,
0
#LYRIC Mada matsu yo
1,
1004,
03,
#BPMCHANGE 201
#SCROLL 0.99502487562
500000000000000000000000000000000008000000000000,
0222,
1120,
#LYRIC Mou ii kai?
44,
#BPMCHANGE 202
#SCROLL 0.9900990099
500000000000000000000000000000000008000000000000,
#LYRIC
0222,
10010020,
02202000,
10101022,
0222,
10101022,
0212,
#BPMCHANGE 201
#SCROLL 0.99502487562
10101022,
0222,
10010020,
02202000,
#GOGOEND
10102011,
00101011,
#END
COURSE:Easy
LEVEL:4
BALLOON:4,4,5,4,4
SCOREINIT:560
SCOREDIFF:170
#START
#BARLINEOFF
#MEASURE 1/4
#LYRIC Boku ga zutto mae kara omotteru koto o hanasou ka?
,
#BARLINEON
#MEASURE 4/4
11,
1100,
22,
222
#LYRIC Tomodachi ni modoretara kore ijou wa mou nozomanai sa
0,
11,
1100,
22,
700
#LYRIC Kimi ga sore de ii nara boku datte sore de kamawanai sa
8,
1101,
1101,
1101,
111
#LYRIC Usotsuki no boku ga haita hantai kotoba no ai no uta
0,
2202,
2202,
2202,
13,
11,
#LYRIC
22,
12,
500000000000000000000000000008000000000000000000,
11,
22,
1120,
500000000000000000000000000008000000000000000000,
11,
22,
1120,
500000000000000000000000000008000000000000000000,
11,
22,
500000000000000000000000000000000000000000000008,
000
#LYRIC Kyou wa kotchi no chihou wa doshaburi no seiten deshita
0,
11,
1100,
11,
111
#LYRIC Kinou mo zutto hima de ichinichi mankitsu shite mashita
0,
22,
2200,
22,
222
#LYRIC Betsu ni kimi no koto nante kangaete nanka inai sa
0,
11,
1100,
11,
111
#LYRIC Iya demo chotto hontou wa kangaeteta ka mo nante
0,
22,
2200,
22,
700
#LYRIC Meriigourando mitai ni mawaru
8,
#MEASURE 3/4
2,
2,
2,
0
#LYRIC Boku no atamannaka wa mou guruguru sa
00,
#BPMCHANGE 202
#SCROLL 0.9900990099
3,
3,
#MEASURE 4/4
#BPMCHANGE 203
#SCROLL 0.98522167487
9,
#BPMCHANGE 205
#SCROLL 0.97560975609
8
#LYRIC Kono ryoute kara koboresou na hodo
0,
#GOGOSTART
#BPMCHANGE 206
#SCROLL 0.9708737864
10010010,
#BPMCHANGE 205
#SCROLL 0.97560975609
1,
10010010,
1
#LYRIC Kimi ni moratta ai wa doko ni suteyou?
0,
2202,
2200,
1111,
1
#LYRIC Kagiri no aru shoumouhin nante boku wa
0,
10010010,
1,
10010010,
#BPMCHANGE 202
#SCROLL 0.9900990099
11,
#GOGOEND
500000000000000000000000000000000008000000000000,
0
#LYRIC Iranai yo
1,
10010010,
500000000000000000000000
#LYRIC Kono ryoute kara koboresou na hodo
000008000000000000000000,
#GOGOSTART
#BPMCHANGE 205
#SCROLL 0.97560975609
10010010,
1,
10010010,
1
#LYRIC Kimi ni watasu ai o dare ni yuzurou?
0,
2202,
2200,
1111,
1
#LYRIC Sonnan doko ni mo ate ga aru wake nai daro
0,
10010010,
1,
10010010,
#BPMCHANGE 202
#SCROLL 0.9900990099
11,
500000000000000000000000000000000008000000000000,
0
#LYRIC Mada matsu yo
1,
1004,
03,
#BPMCHANGE 201
#SCROLL 0.99502487562
9,
8,
11,
#LYRIC Mou ii kai?
22,
#BPMCHANGE 202
#SCROLL 0.9900990099
9,
#LYRIC
8,
11,
2,
11,
22,
1,
22,
#BPMCHANGE 201
#SCROLL 0.99502487562
11,
22,
1,
22,
#GOGOEND
11,
0111,
#END