tja
This commit is contained in:
587
tja/171.tja
Normal file
587
tja/171.tja
Normal file
@@ -0,0 +1,587 @@
|
||||
//TJADB Project
|
||||
TITLE:Juukinzou Fugitive
|
||||
TITLEJA:重金属フューギティブ
|
||||
SUBTITLE:--Ryuwitty feat. GUMI
|
||||
SUBTITLEJA:リューイッティ
|
||||
BPM:140
|
||||
WAVE:Juukinzou Fugitive.ogg
|
||||
OFFSET:-4.171
|
||||
DEMOSTART:30.718
|
||||
|
||||
COURSE:Oni
|
||||
LEVEL:10
|
||||
SCOREINIT:490
|
||||
SCOREDIFF:110
|
||||
|
||||
|
||||
#START
|
||||
|
||||
|
||||
#MEASURE 7/8
|
||||
10210110002200,
|
||||
20221001022210,
|
||||
10210110002200,
|
||||
10210110002200,
|
||||
10210110002200,
|
||||
20221001022210,
|
||||
10210110002200,
|
||||
#MEASURE 3/4
|
||||
110110000000,
|
||||
|
||||
|
||||
#GOGOSTART
|
||||
#MEASURE 4/4
|
||||
#BPMCHANGE 260
|
||||
4011102011102011,
|
||||
12122121,
|
||||
2011102001012010,
|
||||
0001001120030030,
|
||||
4011102011102011,
|
||||
12122121,
|
||||
2011102000200040,
|
||||
000000400000000000000000500000000000000008000000,
|
||||
4011102011102011,
|
||||
12122121,
|
||||
2011102001012010,
|
||||
00030000,
|
||||
4011102011102011,
|
||||
12122121,
|
||||
2011102000200030,
|
||||
000000300000000000400000600000000000000000000008,
|
||||
|
||||
#GOGOEND
|
||||
00221021,
|
||||
0011102000200020,
|
||||
10222102,
|
||||
0020201022101110,
|
||||
10222102,
|
||||
0011102000102020,
|
||||
1022202010202220,
|
||||
2010102210111010,
|
||||
10221021,
|
||||
0011102000200020,
|
||||
10222102,
|
||||
0020201022101110,
|
||||
10222102,
|
||||
0011102000102020,
|
||||
1022202020111010,
|
||||
0100111030030030,
|
||||
|
||||
#GOGOSTART
|
||||
4011102011102011,
|
||||
12122121,
|
||||
2011102001012010,
|
||||
0001001120030030,
|
||||
4011102011102011,
|
||||
12122121,
|
||||
2011102000200050,
|
||||
000000000000000000000000000000000008000000000000,
|
||||
|
||||
#GOGOEND
|
||||
#MEASURE 3/4
|
||||
101111,
|
||||
211,
|
||||
202111,
|
||||
112,
|
||||
101111,
|
||||
212,
|
||||
122122,
|
||||
122,
|
||||
100221,
|
||||
112,
|
||||
100220,
|
||||
112,
|
||||
102110,
|
||||
210210,
|
||||
34,
|
||||
#MEASURE 4/4
|
||||
34,
|
||||
#MEASURE 3/4
|
||||
#BPMCHANGE 260.318
|
||||
600000000000000000000008000000000000,
|
||||
#MEASURE 4/4
|
||||
#BPMCHANGE 180
|
||||
,
|
||||
|
||||
#GOGOSTART
|
||||
1000200220202010,
|
||||
1101201002202010,
|
||||
1101201000220010,
|
||||
1120002000112010,
|
||||
1101201000202010,
|
||||
1101201000202010,
|
||||
1101201000002000,
|
||||
500000000008000000500000000000000008000000000000,
|
||||
1102201102201022,
|
||||
0110220110201102,
|
||||
2010002210101010,
|
||||
2210002000221020,
|
||||
1101201100200020,
|
||||
1101201100202201,
|
||||
1101201100200020,
|
||||
5,
|
||||
|
||||
#GOGOEND
|
||||
#MEASURE 3/4
|
||||
#BPMCHANGE 179.982
|
||||
000000000000000000000008000000000000,
|
||||
|
||||
#GOGOSTART
|
||||
#MEASURE 4/4
|
||||
#BPMCHANGE 260
|
||||
4011102011102011,
|
||||
12122121,
|
||||
2011102001012010,
|
||||
0001001120030030,
|
||||
4011102011102011,
|
||||
12122121,
|
||||
2011102000200040,
|
||||
000000400000000000000000500000000000000008000000,
|
||||
4011102011102011,
|
||||
12122121,
|
||||
2011102001012010,
|
||||
00030000,
|
||||
4011102011102011,
|
||||
12122121,
|
||||
2011102000200030,
|
||||
0030003040040040,
|
||||
3030001110030030,
|
||||
|
||||
#GOGOEND
|
||||
|
||||
|
||||
#END
|
||||
|
||||
|
||||
COURSE:Hard
|
||||
LEVEL:7
|
||||
SCOREINIT:590
|
||||
SCOREDIFF:168
|
||||
|
||||
|
||||
#START
|
||||
|
||||
|
||||
#MEASURE 7/8
|
||||
1021000,
|
||||
0000201,
|
||||
1021000,
|
||||
2011000,
|
||||
1021000,
|
||||
0000201,
|
||||
1021000,
|
||||
#MEASURE 3/4
|
||||
110110000000,
|
||||
|
||||
#GOGOSTART
|
||||
#MEASURE 4/4
|
||||
#BPMCHANGE 260
|
||||
30120120,
|
||||
12022020,
|
||||
10120020,
|
||||
0000000040040040,
|
||||
30120120,
|
||||
12022020,
|
||||
10120205,
|
||||
0000000000000000000000000000000800000000000000000000000000000000,
|
||||
30120120,
|
||||
12022020,
|
||||
10120020,
|
||||
00030000,
|
||||
30120120,
|
||||
12022020,
|
||||
10120205,
|
||||
0000000000000000000000000000000800000000000000000000000000000000,
|
||||
|
||||
#GOGOEND
|
||||
00111022,
|
||||
01020102,
|
||||
00111102,
|
||||
02012121,
|
||||
00111102,
|
||||
02020121,
|
||||
05000000,
|
||||
0000000000000000000000000000000800000000000000000000000000000000,
|
||||
00111022,
|
||||
01020102,
|
||||
00111102,
|
||||
02012121,
|
||||
00111102,
|
||||
01020102,
|
||||
5,
|
||||
0000000000000000000000000000000800000000000000000000000000000000,
|
||||
|
||||
#GOGOSTART
|
||||
30120120,
|
||||
12022020,
|
||||
10120020,
|
||||
0000000040040040,
|
||||
30120120,
|
||||
12022020,
|
||||
10120205,
|
||||
0000000000000000000000000000000800000000000000000000000000000000,
|
||||
|
||||
#GOGOEND
|
||||
#MEASURE 3/4
|
||||
101120,
|
||||
211,
|
||||
201120,
|
||||
212,
|
||||
101120,
|
||||
212,
|
||||
221121,
|
||||
212,
|
||||
100220,
|
||||
112,
|
||||
100220,
|
||||
112,
|
||||
102110,
|
||||
210210,
|
||||
34,
|
||||
#MEASURE 4/4
|
||||
34,
|
||||
#MEASURE 3/4
|
||||
#BPMCHANGE 260.318
|
||||
60000000000000000000000800000000,
|
||||
#MEASURE 4/4
|
||||
#BPMCHANGE 180
|
||||
,
|
||||
|
||||
#GOGOSTART
|
||||
1000200220202020,
|
||||
0000101002202010,
|
||||
1000101002202010,
|
||||
11010221,
|
||||
1000200002202010,
|
||||
1000101002202010,
|
||||
1000101002202000,
|
||||
5000000000000008000000005000000000000000000000080000000000000000,
|
||||
0011100022200011,
|
||||
1000222000111000,
|
||||
33022112,
|
||||
21020120,
|
||||
1000200220200010,
|
||||
1000200220200010,
|
||||
1000200220200010,
|
||||
5,
|
||||
|
||||
#GOGOEND
|
||||
#MEASURE 3/4
|
||||
#BPMCHANGE 179.982
|
||||
000000000000000000000008000000000000,
|
||||
|
||||
#GOGOSTART
|
||||
#MEASURE 4/4
|
||||
#BPMCHANGE 260
|
||||
30120120,
|
||||
12022020,
|
||||
10120020,
|
||||
0000000040040040,
|
||||
30120120,
|
||||
12022020,
|
||||
10120205,
|
||||
0000000000000000000000000000000800000000000000000000000000000000,
|
||||
30120120,
|
||||
12022020,
|
||||
10120020,
|
||||
00030000,
|
||||
30120120,
|
||||
12022020,
|
||||
30340403,
|
||||
0030003040040040,
|
||||
|
||||
#GOGOEND
|
||||
|
||||
|
||||
#END
|
||||
|
||||
|
||||
COURSE:Normal
|
||||
LEVEL:6
|
||||
BALLOON:18
|
||||
SCOREINIT:710
|
||||
SCOREDIFF:218
|
||||
|
||||
|
||||
#START
|
||||
|
||||
|
||||
#MEASURE 7/8
|
||||
1001000,
|
||||
0000002,
|
||||
1001000,
|
||||
,
|
||||
1001000,
|
||||
0000002,
|
||||
1001000,
|
||||
#MEASURE 3/4
|
||||
,
|
||||
|
||||
#GOGOSTART
|
||||
#MEASURE 4/4
|
||||
#BPMCHANGE 260
|
||||
30020020,
|
||||
1022,
|
||||
10020020,
|
||||
,
|
||||
30020020,
|
||||
1022,
|
||||
10020205,
|
||||
0000000000000000000000000000000800000000000000000000000000000000,
|
||||
30020020,
|
||||
1022,
|
||||
10020020,
|
||||
00030000,
|
||||
30020020,
|
||||
1022,
|
||||
10020205,
|
||||
0000000000000000000000000000000800000000000000000000000000000000,
|
||||
|
||||
#GOGOEND
|
||||
00111001,
|
||||
01020202,
|
||||
00111001,
|
||||
01022022,
|
||||
00111001,
|
||||
01010222,
|
||||
05000000,
|
||||
0000000000000000000000000000000800000000000000000000000000000000,
|
||||
00111001,
|
||||
01020202,
|
||||
00111001,
|
||||
01022022,
|
||||
00111001,
|
||||
01020202,
|
||||
5,
|
||||
0000000000000000000000000000000800000000000000000000000000000000,
|
||||
|
||||
#GOGOSTART
|
||||
30020020,
|
||||
1022,
|
||||
10020020,
|
||||
,
|
||||
30020020,
|
||||
1022,
|
||||
10020205,
|
||||
0000000000000000000000000000000800000000000000000000000000000000,
|
||||
|
||||
#GOGOEND
|
||||
#MEASURE 3/4
|
||||
101,
|
||||
101,
|
||||
102,
|
||||
2,
|
||||
101,
|
||||
101,
|
||||
102,
|
||||
2,
|
||||
100110,
|
||||
101,
|
||||
100110,
|
||||
101,
|
||||
7,
|
||||
,
|
||||
,
|
||||
#MEASURE 4/4
|
||||
,
|
||||
#MEASURE 3/4
|
||||
#BPMCHANGE 260.318
|
||||
8,
|
||||
#MEASURE 4/4
|
||||
#BPMCHANGE 180
|
||||
,
|
||||
|
||||
#GOGOSTART
|
||||
10101120,
|
||||
10110220,
|
||||
10110220,
|
||||
11010111,
|
||||
10100221,
|
||||
10110221,
|
||||
10110020,
|
||||
5000000000000000000000000000000000000008000000000000000000000000,
|
||||
01101101,
|
||||
10110220,
|
||||
11011220,
|
||||
11020220,
|
||||
10201120,
|
||||
11020220,
|
||||
10201120,
|
||||
5,
|
||||
|
||||
#GOGOEND
|
||||
#MEASURE 3/4
|
||||
#BPMCHANGE 179.982
|
||||
000000000000000000000008000000000000,
|
||||
|
||||
#GOGOSTART
|
||||
#MEASURE 4/4
|
||||
#BPMCHANGE 260
|
||||
30020020,
|
||||
1022,
|
||||
10020020,
|
||||
,
|
||||
30020020,
|
||||
1022,
|
||||
10020205,
|
||||
0000000000000000000000000000000800000000000000000000000000000000,
|
||||
30020020,
|
||||
1022,
|
||||
10020020,
|
||||
00030000,
|
||||
30020020,
|
||||
3022,
|
||||
30040406,
|
||||
,
|
||||
0000000000000000000000000000000000000000000000000000000000000008,
|
||||
|
||||
#GOGOEND
|
||||
|
||||
|
||||
#END
|
||||
|
||||
|
||||
COURSE:Easy
|
||||
LEVEL:4
|
||||
BALLOON:15
|
||||
SCOREINIT:690
|
||||
SCOREDIFF:295
|
||||
|
||||
|
||||
#START
|
||||
|
||||
|
||||
#MEASURE 7/8
|
||||
1001000,
|
||||
,
|
||||
1001000,
|
||||
,
|
||||
1001000,
|
||||
,
|
||||
1001000,
|
||||
#MEASURE 3/4
|
||||
,
|
||||
|
||||
#GOGOSTART
|
||||
#MEASURE 4/4
|
||||
#BPMCHANGE 260
|
||||
3,
|
||||
3,
|
||||
1022,
|
||||
,
|
||||
3,
|
||||
3,
|
||||
1022,
|
||||
,
|
||||
3,
|
||||
3,
|
||||
1022,
|
||||
,
|
||||
3,
|
||||
3,
|
||||
44,
|
||||
6000000000000000000000000000000800000000000000000000000000000000,
|
||||
|
||||
#GOGOEND
|
||||
11,
|
||||
1,
|
||||
11,
|
||||
1,
|
||||
11,
|
||||
1,
|
||||
5,
|
||||
0000000000000000000000000000000800000000000000000000000000000000,
|
||||
11,
|
||||
1,
|
||||
11,
|
||||
1,
|
||||
11,
|
||||
1,
|
||||
5,
|
||||
0000000000000000000000000000000800000000000000000000000000000000,
|
||||
|
||||
#GOGOSTART
|
||||
3,
|
||||
3,
|
||||
1022,
|
||||
,
|
||||
3,
|
||||
3,
|
||||
1022,
|
||||
,
|
||||
|
||||
#GOGOEND
|
||||
#MEASURE 3/4
|
||||
1,
|
||||
1,
|
||||
1,
|
||||
2,
|
||||
1,
|
||||
1,
|
||||
1,
|
||||
2,
|
||||
101,
|
||||
1,
|
||||
101,
|
||||
1,
|
||||
7,
|
||||
,
|
||||
,
|
||||
#MEASURE 4/4
|
||||
,
|
||||
#MEASURE 3/4
|
||||
#BPMCHANGE 260.318
|
||||
8,
|
||||
#MEASURE 4/4
|
||||
#BPMCHANGE 180
|
||||
,
|
||||
|
||||
#GOGOSTART
|
||||
1110,
|
||||
11,
|
||||
2220,
|
||||
1110,
|
||||
1102,
|
||||
1101,
|
||||
1202,
|
||||
5000000000000000000000000000000000000008000000000000000000000000,
|
||||
1110,
|
||||
11,
|
||||
2220,
|
||||
1110,
|
||||
1102,
|
||||
1101,
|
||||
1202,
|
||||
5,
|
||||
|
||||
#GOGOEND
|
||||
#MEASURE 3/4
|
||||
#BPMCHANGE 179.982
|
||||
000000000000000000000008000000000000,
|
||||
|
||||
#GOGOSTART
|
||||
#MEASURE 4/4
|
||||
#BPMCHANGE 260
|
||||
3,
|
||||
3,
|
||||
1012,
|
||||
,
|
||||
3,
|
||||
3,
|
||||
1012,
|
||||
,
|
||||
3,
|
||||
3,
|
||||
1012,
|
||||
,
|
||||
3,
|
||||
3,
|
||||
44,
|
||||
6,
|
||||
0000000000000000000000000000000000000000000000000000000000000008,
|
||||
|
||||
#GOGOEND
|
||||
|
||||
|
||||
#END
|
||||
|
||||
Reference in New Issue
Block a user