This commit is contained in:
2026-03-04 23:59:27 +09:00
parent 6e0312f5b4
commit 4b4e2b8c98
1128 changed files with 668765 additions and 0 deletions

253
tja/18.tja Normal file
View File

@@ -0,0 +1,253 @@
//TJADB Project
TITLE:Himawari no Yakusoku
TITLEJA:ひまわりの約束
SUBTITLE:--Motohiro Hata/STAND BY ME Doraemon
SUBTITLEJA:映画「STAND BY ME ドラえもん」より
BPM:79
WAVE:Himawari no Yakusoku.ogg
OFFSET:-6.344
DEMOSTART:59.305
//Shinuchi: 10240/6960/5420/4210
COURSE:Oni
LEVEL:7
BALLOON:
SCOREINIT:1250,4230
SCOREDIFF:405
#START
#SCROLL 0.5
12210000,
12210020,
12210212,
01200000,
12210001,
12210121,
11210221,
02210120, //8
12210001,
12210012,
12210221,
01121121,
00002212,
500000000008000000000500000000000008000000000500,
000000000008000000200200100000000000200200100000,
12212105,
#MEASURE 6/4
000008000000200200100000000000000000300000000000000000000000000000000000, //17
#MEASURE 4/4
#SCROLL 1
#GOGOSTART
1222022210102221,
0011002210120022,
500000000008000000200200100000100000200000200000,
500000000008000000200000100000100000200000000000,
#SCROLL 1.5
1022020210102002,
1022020210102002,
1022102212102210,
500000000008000000200200100000100000200100100000, //25
#SCROLL 2
1222022210102021,
0011002210120022,
500000000008000000200200100000100000200000200000,
500000000008000000200000100000100000200200200000,
#SCROLL 2.5
1022102212102022,
1022102212102022,
#SCROLL 3
1022102211221122,
1010211040000000, //33
500000000000000000000000000000000008000000000000,
#GOGOEND
#BARLINEOFF
0,
0, //36
#END
COURSE:Hard
LEVEL:5
BALLOON:
SCOREINIT:1270,5520
SCOREDIFF:443
#START
12210000,
12210210,
12210212,
01200000,
1010201000000022,
11210022,
11210221,
0020201000002210, //8
1010201000000022,
11210022,
11210211,
01221121,
00002222,
500000000008000000100500000000000008000000100500,
000000000008000000100500000008000000200200200000,
11211105,
#MEASURE 6/4
000008000000100100100000000000000000300000000000000000000000000000000000, //17
#MEASURE 4/4
#SCROLL 1.5
#GOGOSTART
100100200200000200200500000000008000200200200500,
008000200500008000200500008000200500008000200500,
000000000008000000200100000000100000200000200000,
500000000008000000500000000000000008000000000100,
100000200200000200000500000000000000008000000100,
100000200200000200000500000000000000008000000100,
100000200200000000100500000000008000100000000000,
500000000008000000200200100000100000200200200000, //25
100100200200000200200500000000008000200000200500,
008000200500008000200500008000200500008000200500,
000000000008000000200100000000100000200000200000,
500000000008000000500000000000000008000000000100,
200000200200000000200100000100500000000008000100,
200000200100000000100200000100500000000008000100,
1022002200110022,
0010211040000000, //33
500000000000000000000000000000000008000000000000,
#GOGOEND
#BARLINEOFF
0,
0, //36
#END
COURSE:Normal
LEVEL:4
BALLOON:
SCOREINIT:1170,7100
SCOREDIFF:498
#START
11010000,
11010020,
22020102,
01200000,
11010000,
11010022,
11010222,
01110000, //8
11010000,
11010022,
11010222,
01111010,
10002222,
1202,
1202,
11101105,
#MEASURE 6/4
000008000000100000100000000000000000300000000000000000000000000000000000, //17
#MEASURE 4/4
#GOGOSTART
10201120,
10201120,
10201122,
500000000000000000000000000000000008000000000000,
10201120,
10201120,
10201120,
500000000008000000200000100000100000200000000000, //25
10201120,
10201120,
10201122,
500000000000000000000000000000000008000000000000,
10201120,
10201120,
10201120,
11214000, //33
500000000000000000000000000000000008000000000000,
#GOGOEND
#BARLINEOFF
0,
0, //36
#END
COURSE:Easy
LEVEL:3
BALLOON:
SCOREINIT:1070,10550
SCOREDIFF:723
#START
20020000,
20020000,
20020002,
0200,
10010000,
10010020,
10010101,
0122, //8
10010000,
10010020,
10010100,
1022,
1022,
500000000000000008000000200000000000200000000000,
500000000000000008000000200000000000200000000000,
10101105,
#MEASURE 6/4
000000000000000008000000000000000000300000000000000000000000000000000000, //17
#MEASURE 4/4
#GOGOSTART
10201100,
10201100,
10201100,
500000000000000000000000000000000008000000000000,
10201100,
10201100,
10201100,
500000000000000000000000000008000000000000000000, //25
10201100,
10201100,
10201100,
500000000000000000000000000000000008000000000000,
10201100,
10201100,
10201100,
1140, //33
500000000000000000000000000000000008000000000000,
#GOGOEND
#BARLINEOFF
0,
0, //36
#END