tja
This commit is contained in:
777
tja/190.tja
Normal file
777
tja/190.tja
Normal file
@@ -0,0 +1,777 @@
|
||||
//TJADB Project
|
||||
TITLE:Geragera to Warauna
|
||||
TITLEJA:ゲラゲラと笑うな
|
||||
SUBTITLE:--Ishifuro feat. IA
|
||||
SUBTITLEJA:石風呂 feat.IA
|
||||
BPM:180
|
||||
WAVE:Geragera to Warauna.ogg
|
||||
OFFSET:-2.774
|
||||
DEMOSTART:52.774
|
||||
|
||||
COURSE:Oni
|
||||
LEVEL:9
|
||||
BALLOON:17,5,12
|
||||
SCOREINIT:340
|
||||
SCOREDIFF:75
|
||||
|
||||
|
||||
#START
|
||||
|
||||
|
||||
#MEASURE 2/4
|
||||
2222,
|
||||
|
||||
#GOGOSTART
|
||||
#MEASURE 4/4
|
||||
1110202021102020,
|
||||
2011201020112010,
|
||||
1110202021102020,
|
||||
2011201020112010,
|
||||
1211101112101211,
|
||||
1011121012121000,
|
||||
3030220030022030,
|
||||
0011211020201010,
|
||||
|
||||
#GOGOEND
|
||||
33022202,
|
||||
12022202,
|
||||
1020220020200020,
|
||||
1020022020222120,
|
||||
33201220,
|
||||
1010200210202000,
|
||||
1010201200202070,
|
||||
,
|
||||
00008222,
|
||||
|
||||
#GOGOSTART
|
||||
1110202021102020,
|
||||
2011201020112010,
|
||||
1110202021102020,
|
||||
2011211020201010,
|
||||
|
||||
#GOGOEND
|
||||
33021202,
|
||||
22021202,
|
||||
2020002010220020,
|
||||
2020022010222120,
|
||||
33201220,
|
||||
1010201200202000,
|
||||
1010200210222120,
|
||||
5000000000000000000000000000000000000000000000000000000800000000,
|
||||
02020221,
|
||||
0222,
|
||||
02020221,
|
||||
0222,
|
||||
3030220010100220,
|
||||
1010220010100220,
|
||||
33003300,
|
||||
33340000,
|
||||
|
||||
#GOGOSTART
|
||||
1000100010112011,
|
||||
1000100010112010,
|
||||
2011201020112010,
|
||||
2011201022111000,
|
||||
1000100010112011,
|
||||
1000100010112010,
|
||||
2011201020112010,
|
||||
2011201112111000,
|
||||
|
||||
#GOGOEND
|
||||
1122,
|
||||
1122,
|
||||
1212,
|
||||
#MEASURE 2/4
|
||||
3333,
|
||||
#MEASURE 4/4
|
||||
70801120,
|
||||
1000102100202000,
|
||||
1000100210202000,
|
||||
1000102100222120,
|
||||
3030220010100210,
|
||||
1010220010100210,
|
||||
1010220010100210,
|
||||
1010220010210010,
|
||||
10022020,
|
||||
12022020,
|
||||
01010220,
|
||||
1000100020210010,
|
||||
10022020,
|
||||
12022020,
|
||||
01010220,
|
||||
3000300011111111,
|
||||
|
||||
#GOGOSTART
|
||||
1000100010112011,
|
||||
1000100010112010,
|
||||
2011201020112010,
|
||||
2011201022111000,
|
||||
1000100010112011,
|
||||
1000100010112010,
|
||||
2011201020112010,
|
||||
2011201112111000,
|
||||
4433,
|
||||
4433,
|
||||
|
||||
#GOGOEND
|
||||
400002200202,
|
||||
020201222100,
|
||||
200002202202,
|
||||
200122122122,
|
||||
102201002202,
|
||||
200022200000100000100022,
|
||||
200020200022200022200022,
|
||||
222102221222,
|
||||
102102102102,
|
||||
100022100020100022100020,
|
||||
100021100020100021100020,
|
||||
100022100020100021102010,
|
||||
100100100000200000200000100100002000200000100000,
|
||||
100100100000200000200000100100002000200000100000,
|
||||
7008,
|
||||
33222040,
|
||||
33222040,
|
||||
33403340,
|
||||
1111221122121000,
|
||||
#MEASURE 2/4
|
||||
,
|
||||
|
||||
#GOGOSTART
|
||||
#MEASURE 4/4
|
||||
1000100010112011,
|
||||
1000100010112010,
|
||||
2011201020112010,
|
||||
2011201020201111,
|
||||
1000100010112011,
|
||||
1000100010112010,
|
||||
2011201020112010,
|
||||
2011201112111000,
|
||||
1001202002102020,
|
||||
1001202002102020,
|
||||
1001201020021020,
|
||||
1001201022111020,
|
||||
33003300,
|
||||
33003300,
|
||||
4003003040030030,
|
||||
3000301222222222,
|
||||
|
||||
#GOGOEND
|
||||
1,
|
||||
,
|
||||
5000000000000000000000080000000020002000200020002000200020002000,
|
||||
|
||||
#GOGOSTART
|
||||
1002102010021020,
|
||||
1002102012221212,
|
||||
1002102010021020,
|
||||
1002102011221212,
|
||||
1002102010021020,
|
||||
1002102012221212,
|
||||
1002102010021020,
|
||||
|
||||
#GOGOEND
|
||||
#MEASURE 2/4
|
||||
3,
|
||||
|
||||
#GOGOSTART
|
||||
#MEASURE 4/4
|
||||
#SCROLL 1.75
|
||||
3030111210401211,
|
||||
1040112110401210,
|
||||
|
||||
#GOGOEND
|
||||
#BARLINEOFF
|
||||
#BPMCHANGE 107.5
|
||||
#SCROLL 0.93023255814
|
||||
3
|
||||
#BPMCHANGE 98
|
||||
#SCROLL 1.02040816327
|
||||
4,
|
||||
#BPMCHANGE 100.5
|
||||
#SCROLL 0.99502487562
|
||||
300000000000
|
||||
#BPMCHANGE 80
|
||||
#SCROLL 1.25
|
||||
400000000011,
|
||||
#MEASURE 1/4
|
||||
2,
|
||||
|
||||
|
||||
#END
|
||||
|
||||
|
||||
COURSE:Hard
|
||||
LEVEL:6
|
||||
BALLOON:15,4,5
|
||||
SCOREINIT:380
|
||||
SCOREDIFF:90
|
||||
|
||||
|
||||
#START
|
||||
|
||||
|
||||
#MEASURE 2/4
|
||||
,
|
||||
|
||||
#GOGOSTART
|
||||
#MEASURE 4/4
|
||||
11122011,
|
||||
1010200011102000,
|
||||
11122011,
|
||||
1010200011102000,
|
||||
1000200011102000,
|
||||
1000200011102000,
|
||||
5,
|
||||
0000000000000000000000000000000800000000000000000000000000000000,
|
||||
|
||||
#GOGOEND
|
||||
33002020,
|
||||
10022220,
|
||||
10022220,
|
||||
1220,
|
||||
33002020,
|
||||
10022220,
|
||||
10221027,
|
||||
,
|
||||
0008,
|
||||
|
||||
#GOGOSTART
|
||||
11122011,
|
||||
1010200011102000,
|
||||
11122011,
|
||||
1010200011102000,
|
||||
|
||||
#GOGOEND
|
||||
33002010,
|
||||
10022110,
|
||||
10022110,
|
||||
1120,
|
||||
33002010,
|
||||
10022110,
|
||||
10221020,
|
||||
5000000000000000000000000000000000000000000000000000000800000000,
|
||||
02020220,
|
||||
00200220,
|
||||
02020220,
|
||||
2220,
|
||||
33002010,
|
||||
10022110,
|
||||
33003300,
|
||||
6000000000000000000000000000000800000000000000000000000000000000,
|
||||
|
||||
#GOGOSTART
|
||||
1000100010002011,
|
||||
10101220,
|
||||
1000100010002011,
|
||||
1000201000111010,
|
||||
1000100010002011,
|
||||
10101220,
|
||||
03330404,
|
||||
0000000030000000300000006000000000000000000000080000000000000000,
|
||||
|
||||
#GOGOEND
|
||||
1122,
|
||||
1122,
|
||||
1212,
|
||||
#MEASURE 2/4
|
||||
3333,
|
||||
#MEASURE 4/4
|
||||
70081020,
|
||||
10021110,
|
||||
10021110,
|
||||
1210,
|
||||
33001020,
|
||||
10021110,
|
||||
10211020,
|
||||
10211020,
|
||||
10022020,
|
||||
10222020,
|
||||
10210120,
|
||||
1000201000222020,
|
||||
10022020,
|
||||
10222020,
|
||||
01110222,
|
||||
0000000010000000100000005000000000000000000000080000000000000000,
|
||||
|
||||
#GOGOSTART
|
||||
1000100010002011,
|
||||
10101220,
|
||||
1000100010002011,
|
||||
1000201000111010,
|
||||
1000100010002011,
|
||||
10101220,
|
||||
03330444,
|
||||
0000000030000000300000006000000000000000000000080000000000000000,
|
||||
4433,
|
||||
4433,
|
||||
|
||||
#GOGOEND
|
||||
400002200200,
|
||||
0202,
|
||||
200002200200,
|
||||
0202,
|
||||
2002,
|
||||
2022,
|
||||
202200202200,
|
||||
222200222200,
|
||||
100100102100,
|
||||
100100102100,
|
||||
100100102100,
|
||||
100100102100,
|
||||
100200102200,
|
||||
100200102200,
|
||||
5000000000000000000000000000000000000000000000000000000000000008,
|
||||
00111030,
|
||||
00222040,
|
||||
0303,
|
||||
40404440,
|
||||
#MEASURE 2/4
|
||||
,
|
||||
|
||||
#MEASURE 4/4
|
||||
#GOGOSTART
|
||||
1000100010002011,
|
||||
10101220,
|
||||
1000100010002011,
|
||||
1000201000111010,
|
||||
1000100010002011,
|
||||
10101220,
|
||||
03330404,
|
||||
0000000030000000300000006000000000000000000000080000000000000000,
|
||||
10221220,
|
||||
10221220,
|
||||
1000201000222000,
|
||||
1000201000222000,
|
||||
33003300,
|
||||
33003300,
|
||||
6,
|
||||
0000000000000000000000000000000800000000000000000000000000000000,
|
||||
|
||||
#GOGOEND
|
||||
3,
|
||||
,
|
||||
7008,
|
||||
|
||||
#GOGOSTART
|
||||
11122011,
|
||||
1010200011102000,
|
||||
11122011,
|
||||
1010200011102000,
|
||||
11122011,
|
||||
1010200011102000,
|
||||
11112022,
|
||||
|
||||
#GOGOEND
|
||||
#MEASURE 2/4
|
||||
,
|
||||
|
||||
#GOGOSTART
|
||||
#MEASURE 4/4
|
||||
#SCROLL 1.75
|
||||
33004400,
|
||||
33004400,
|
||||
|
||||
#GOGOEND
|
||||
#BARLINEOFF
|
||||
#BPMCHANGE 107.5
|
||||
#SCROLL 0.93023255814
|
||||
1
|
||||
#BPMCHANGE 98
|
||||
#SCROLL 1.02040816327
|
||||
2,
|
||||
#BPMCHANGE 100.5
|
||||
#SCROLL 0.99502487562
|
||||
1
|
||||
#BPMCHANGE 80
|
||||
#SCROLL 1.25
|
||||
2,
|
||||
#MEASURE 1/4
|
||||
3,
|
||||
|
||||
|
||||
#END
|
||||
|
||||
|
||||
COURSE:Normal
|
||||
LEVEL:5
|
||||
BALLOON:12,8,4,4
|
||||
SCOREINIT:410
|
||||
SCOREDIFF:95
|
||||
|
||||
|
||||
#START
|
||||
|
||||
|
||||
#MEASURE 2/4
|
||||
,
|
||||
|
||||
#GOGOSTART
|
||||
#MEASURE 4/4
|
||||
11101011,
|
||||
1120,
|
||||
11101011,
|
||||
1120,
|
||||
1122,
|
||||
1122,
|
||||
5,
|
||||
0000000000000000000000000000000800000000000000000000000000000000,
|
||||
|
||||
#GOGOEND
|
||||
33002020,
|
||||
10022020,
|
||||
10022020,
|
||||
1110,
|
||||
33002020,
|
||||
10022020,
|
||||
10022027,
|
||||
,
|
||||
00080000,
|
||||
|
||||
#GOGOSTART
|
||||
11102011,
|
||||
1120,
|
||||
11102011,
|
||||
1120,
|
||||
|
||||
#GOGOEND
|
||||
33002010,
|
||||
10022010,
|
||||
10022010,
|
||||
1110,
|
||||
33002010,
|
||||
10022010,
|
||||
10022010,
|
||||
7008,
|
||||
00002220,
|
||||
20022002,
|
||||
20022020,
|
||||
2220,
|
||||
33002020,
|
||||
20022020,
|
||||
33003300,
|
||||
6000000000000000000000000000000800000000000000000000000000000000,
|
||||
|
||||
#GOGOSTART
|
||||
1112,
|
||||
10111020,
|
||||
01110220,
|
||||
10220000,
|
||||
1112,
|
||||
10111020,
|
||||
01110220,
|
||||
5000000000000000000000000000000000000008000000000000000000000000,
|
||||
|
||||
#GOGOEND
|
||||
1122,
|
||||
1122,
|
||||
1212,
|
||||
#MEASURE 2/4
|
||||
7,
|
||||
#MEASURE 4/4
|
||||
8011,
|
||||
10011020,
|
||||
10011020,
|
||||
1110,
|
||||
33001010,
|
||||
10011020,
|
||||
10011020,
|
||||
1110,
|
||||
1202,
|
||||
1222,
|
||||
1202,
|
||||
1002,
|
||||
1202,
|
||||
1222,
|
||||
1202,
|
||||
5000000000000000000000000000000000000008000000000000000000000000,
|
||||
|
||||
#GOGOSTART
|
||||
10101120,
|
||||
10111020,
|
||||
01110220,
|
||||
10220000,
|
||||
10101120,
|
||||
10111020,
|
||||
01110220,
|
||||
5000000000000000000000000000000000000008000000000000000000000000,
|
||||
2211,
|
||||
2211,
|
||||
|
||||
#GOGOEND
|
||||
2,
|
||||
,
|
||||
2,
|
||||
,
|
||||
2,
|
||||
2,
|
||||
22,
|
||||
2222,
|
||||
1112,
|
||||
1122,
|
||||
1112,
|
||||
1122,
|
||||
1212,
|
||||
1212,
|
||||
5000000000000000000000000000000000000000000000080000000000000000,
|
||||
00111030,
|
||||
00222040,
|
||||
0303,
|
||||
40404440,
|
||||
#MEASURE 2/4
|
||||
,
|
||||
|
||||
#GOGOSTART
|
||||
#MEASURE 4/4
|
||||
10101120,
|
||||
10112020,
|
||||
01110220,
|
||||
10220000,
|
||||
10101120,
|
||||
10112020,
|
||||
01110220,
|
||||
5000000000000000000000000000000000000008000000000000000000000000,
|
||||
10112020,
|
||||
10112020,
|
||||
01110220,
|
||||
10220000,
|
||||
33003300,
|
||||
33003300,
|
||||
6,
|
||||
0000000000000000000000000000000800000000000000000000000000000000,
|
||||
|
||||
#GOGOEND
|
||||
3,
|
||||
,
|
||||
7008,
|
||||
|
||||
#GOGOSTART
|
||||
11101022,
|
||||
2220,
|
||||
11101022,
|
||||
2220,
|
||||
11101022,
|
||||
2220,
|
||||
11101022,
|
||||
|
||||
#GOGOEND
|
||||
#MEASURE 2/4
|
||||
,
|
||||
|
||||
#MEASURE 4/4
|
||||
#GOGOSTART
|
||||
#SCROLL 1.75
|
||||
34,
|
||||
34,
|
||||
|
||||
#GOGOEND
|
||||
#BARLINEOFF
|
||||
#BPMCHANGE 107.5
|
||||
#SCROLL 0.93023255814
|
||||
1
|
||||
#BPMCHANGE 98
|
||||
#SCROLL 1.02040816327
|
||||
2,
|
||||
#BPMCHANGE 100.5
|
||||
#SCROLL 0.99502487562
|
||||
1
|
||||
#BPMCHANGE 80
|
||||
#SCROLL 1.25
|
||||
2,
|
||||
#MEASURE 1/4
|
||||
3,
|
||||
|
||||
|
||||
#END
|
||||
|
||||
|
||||
COURSE:Easy
|
||||
LEVEL:3
|
||||
BALLOON:9,3,3
|
||||
SCOREINIT:360
|
||||
SCOREDIFF:88
|
||||
|
||||
|
||||
#START
|
||||
|
||||
|
||||
#MEASURE 2/4
|
||||
,
|
||||
|
||||
#GOGOSTART
|
||||
#MEASURE 4/4
|
||||
1110,
|
||||
22,
|
||||
1110,
|
||||
22,
|
||||
1110,
|
||||
1110,
|
||||
5,
|
||||
0000000000000000000000000000000800000000000000000000000000000000,
|
||||
|
||||
#GOGOEND
|
||||
3011,
|
||||
12,
|
||||
11,
|
||||
1,
|
||||
3011,
|
||||
12,
|
||||
10001007,
|
||||
,
|
||||
00080000,
|
||||
|
||||
#GOGOSTART
|
||||
1110,
|
||||
22,
|
||||
1110,
|
||||
22,
|
||||
|
||||
#GOGOEND
|
||||
3011,
|
||||
12,
|
||||
11,
|
||||
1,
|
||||
3011,
|
||||
12,
|
||||
11,
|
||||
7008,
|
||||
0022,
|
||||
22,
|
||||
0022,
|
||||
22,
|
||||
3022,
|
||||
22,
|
||||
33,
|
||||
6000000000000000000000000000000800000000000000000000000000000000,
|
||||
|
||||
#GOGOSTART
|
||||
11,
|
||||
1110,
|
||||
11,
|
||||
1100,
|
||||
11,
|
||||
1110,
|
||||
11,
|
||||
5000000000000000000000000000000000000008000000000000000000000000,
|
||||
|
||||
#GOGOEND
|
||||
1122,
|
||||
1122,
|
||||
1212,
|
||||
#MEASURE 2/4
|
||||
7,
|
||||
#MEASURE 4/4
|
||||
8011,
|
||||
12,
|
||||
11,
|
||||
1,
|
||||
3011,
|
||||
12,
|
||||
11,
|
||||
1,
|
||||
12,
|
||||
1022,
|
||||
12,
|
||||
1,
|
||||
12,
|
||||
1022,
|
||||
12,
|
||||
1,
|
||||
|
||||
#GOGOSTART
|
||||
1110,
|
||||
1111,
|
||||
0110,
|
||||
1100,
|
||||
1110,
|
||||
1111,
|
||||
0110,
|
||||
5000000000000000000000000000000000000008000000000000000000000000,
|
||||
1111,
|
||||
1222,
|
||||
|
||||
#GOGOEND
|
||||
2,
|
||||
,
|
||||
2,
|
||||
,
|
||||
2,
|
||||
2,
|
||||
22,
|
||||
2222,
|
||||
11,
|
||||
1120,
|
||||
1120,
|
||||
11,
|
||||
1212,
|
||||
1212,
|
||||
5000000000000000000000000000000000000000000000080000000000000000,
|
||||
0111,
|
||||
0222,
|
||||
0101,
|
||||
3333,
|
||||
#MEASURE 2/4
|
||||
,
|
||||
|
||||
#GOGOSTART
|
||||
#MEASURE 4/4
|
||||
1110,
|
||||
1122,
|
||||
0110,
|
||||
1100,
|
||||
1110,
|
||||
1122,
|
||||
0110,
|
||||
5000000000000000000000000000000000000008000000000000000000000000,
|
||||
1120,
|
||||
1122,
|
||||
0110,
|
||||
2200,
|
||||
33,
|
||||
33,
|
||||
6,
|
||||
0000000000000000000000000000000800000000000000000000000000000000,
|
||||
|
||||
#GOGOEND
|
||||
3,
|
||||
,
|
||||
7008,
|
||||
|
||||
#GOGOSTART
|
||||
1110,
|
||||
22,
|
||||
1110,
|
||||
22,
|
||||
1110,
|
||||
2220,
|
||||
1110,
|
||||
|
||||
#GOGOEND
|
||||
#MEASURE 2/4
|
||||
2,
|
||||
|
||||
#GOGOSTART
|
||||
#MEASURE 4/4
|
||||
#SCROLL 1.75
|
||||
34,
|
||||
34,
|
||||
|
||||
#GOGOEND
|
||||
#BARLINEOFF
|
||||
#BPMCHANGE 107.5
|
||||
#SCROLL 0.93023255814
|
||||
1
|
||||
#BPMCHANGE 98
|
||||
#SCROLL 1.02040816327
|
||||
2,
|
||||
#BPMCHANGE 100.5
|
||||
#SCROLL 0.99502487562
|
||||
1
|
||||
#BPMCHANGE 80
|
||||
#SCROLL 1.25
|
||||
2,
|
||||
#MEASURE 1/4
|
||||
3,
|
||||
|
||||
|
||||
#END
|
||||
|
||||
Reference in New Issue
Block a user