This commit is contained in:
2026-03-04 23:59:27 +09:00
parent 6e0312f5b4
commit 4b4e2b8c98
1128 changed files with 668765 additions and 0 deletions

430
tja/191.tja Normal file
View File

@@ -0,0 +1,430 @@
//TJADB Project
TITLE:Boku wa Synth
TITLEJA:ボクハシンセ
SUBTITLE:--Hanabatake Chaika / FOCUS ON (Nijisanji) x Taiko no Tatsujin
SUBTITLEJA:花畑チャイカ / FOCUS ON (にじさんじ) × 太鼓の達人
BPM:110
WAVE:Boku wa Synth (Nijisanji).ogg
OFFSET:-2.625
DEMOSTART:11.067
//shinuchi: 5770/4270/2490/1500
COURSE:Oni
LEVEL:8
BALLOON:12,15
SCOREINIT:500,1630
SCOREDIFF:120
#START
102002000111200202001001,
01111010,
20002221,
01211010,
100202000200100202000200,
100202000200100202002200,
100101200202100200100111,
102001200102001200101200,
100202000200102100200100,
100202000200102100200100,
100100201001000100100105,
000000000000000000000008000000000000000000000000, //12
#GOGOSTART
100101200101100100200101,
100202100202100101002001,
100100201100000100200100,
100102200102200102200200,
000300300300300101003000,
000400400400400202004000,
101001001100200200202001,
01111111,
7081,
100010001000100100100100100010001000100000000000, //22
#GOGOEND
100202000200100202000200,
100202000200100202002200,
100101200202100200100111,
102001200102001200101202,
100202001200102100200100,
100202001200102100200111,
100100200201002100200222,
200102202201000200100200, //30
100202100202100200111100,
700000000000000000000008000000000000000000000000,
11211010,
102002002002002100200222,
200100201002002200200222,
100222100222101101102202,
100100200102200100201001,
100100202002002200200000, //38
31,
10000333,
300004000400004000300003,
000100100100100100100101,
100000000000100111200101,
#GOGOSTART
000202100202100101002001,
100100201100000100200100,
100102200102200102200200, //46
000300300300300101003000,
000400400400400202004000,
101001001100200200202001,
01111111,
100000000020000000200000002000000002000000000000,
100100100100100100100100100010001000100000100000,
102200102200111222111222, //53
#GOGOEND
100202000200102100200222,
100202000200102100200222,
100101200202100200100111,
102001200102001200101202,
100202001200111200200100,
100202001200111200200222,
100100200101001100222100,
200101001101000100100100, //61
#GOGOSTART
10101011,
44303344,
300300300111,
111111100100,
100201000222100201002001,
001100200101100100200111,
100000100100100001000222,
100100200100200001100600,
000000000000000000000000000000000008000000300000,
#GOGOEND
0,
0, //72
#END
COURSE:Hard
LEVEL:4
BALLOON:10,4,4,20,20,24
SCOREINIT:580,3090
SCOREDIFF:133
#START
101001000000200202000000,
0011,
10001221,
01211001,
10211021,
10211220,
11201120,
101000200101000200000100,
10211021,
10211220,
100100201001000100200105,
000000000000000000000008000000000000000000000000, //12
#GOGOSTART
100100200100100200200105,
000000000000000000000008000000000000000000000000,
11201120,
12201034,
000400400400400202004000,
000400400400400202004000,
500000000000000000000008000000000000100010000010,
03333333,
7081,
600000000000000000000000000008000000000000100000, //22
#GOGOEND
10211021,
10211220,
11201120,
101000200101000200000100,
10211021,
10211220,
100000200000200000100010000050000000000080000000,
100200200101000100200200, //30
3344,
500000000000000000000000000000000000000000000008,
0,
101001001001000000100000,
12101212,
100000100000100000100000500000000000000000000008,
00112001,
10112110, //38
3,
1,
100000000010000000010000000010000000000000000030,
000000600000000000000000000000000000000000000008,
000000000000100100100105,
#GOGOSTART
000000000000000000000008000000000000000000000000,
11201120,
12201034, //46
000400400400400202004000,
000000400000400000400000400000200020000004000000,
500000000000000000000008000000000000100010000010,
03333333,
700000000000080000000000700000000000080000000000,
900000000000000000000000000000000009000000000008,
00000001, //53
#GOGOEND
10211021,
10211220,
11201120,
101000200101000200000100,
10211021,
10211220,
100100100101000100000000,
11201122, //61
#GOGOSTART
10101011,
44303344,
3336,
000000000000000000000008000000000000300000000000,
900000000000000000000000000000000009000000000008,
0,
100000100100100001000100,
000100100200200001100900,
000000000000000000000000000000000900000000000008,
#GOGOEND
0,
0, //72
#END
COURSE:Normal
LEVEL:3
BALLOON:15,30,3,3,15,15,18
SCOREINIT:710,5030
SCOREDIFF:180
#START
11,
700000000000000000000000000000000000000000000008,
00001011,
00001001,
10022001,
10022001,
10101025,
000000000000000000000008000000000000000000100000,
10022001,
10022001,
10101025,
000000000000000000000000000008000000000000000000, //12
#GOGOSTART
10101110,
2202,
10101110,
10100022,
0110,
100000100000100000100000500000000008000000000000,
1011,
11,
33333333,
600000000000000000000000000008000000000000100000, //22
#GOGOEND
10022001,
10022001,
10101025,
000000000000000000000000000008000000000000100000,
10022001,
10022001,
1112,
01101010, //30
3344,
9,
000000000000000000000009000000000000000000000008,
0,
1,
1110,
11101001,
1110, //38
11,
1112,
600000000000000000000000000000000000000000000008,
0,
10001115,
#GOGOSTART
000000000000000000000008000000000000000000000000,
1110,
11101011, //46
01101000,
11101000,
11,
1122,
7878,
900000000000000000000000000000000009000000000008,
0, //53
#GOGOEND
10022001,
10022001,
10101025,
000000000000000000000008000000000000000000100000,
10022001,
10022001,
1112,
1111, //61
#GOGOSTART
3344,
11101010,
3346,
000000000000000000000008000000000000000000000000,
900000000000000000000000000000000009000000000008,
0,
10111000,
10101019,
000000000000000000000000000000000900000000000008,
#GOGOEND
0,
0, //72
#END
COURSE:Easy
LEVEL:3
BALLOON:12,24,2,2,12,12,13
SCOREINIT:650,6830
SCOREDIFF:160
#START
11,
700000000000000000000000000000000000000000000008,
0,
0,
11,
22,
10101015,
000000000000000000000000000008000000000000000000,
10011000,
10011000,
10101015,
000000000000000000000000000008000000000000000000, //12
#GOGOSTART
1011,
11,
1022,
22,
1011,
1011,
11,
4444,
600000000000000000000000000000000008000000000000,
600000000000000000000000000008000000000000000000, //22
#GOGOEND
10011000,
10011000,
10101015,
000000000000000000000000000008000000000000000000,
10011000,
10011000,
1111,
1022, //30
3344,
9,
000000000000000000000009000000000000000000000008,
0,
11,
1220,
1110,
1110,
1,
22,
600000000000000000000000000000000000000000000008,
0,
1011,
#GOGOSTART
11,
1110,
1220, //46
2220,
2220,
1112,
1112,
7878,
900000000000000000000000000000000009000000000008,
0, //53
#GOGOEND
10011000,
10011000,
10101015,
000000000000000000000000000008000000000000000000,
10011000,
10011000,
1110,
1110, //61
#GOGOSTART
3344,
11,
3346,
000000000000000000000008000000000000000000000000,
900000000000000000000000000000000009000000000008,
0,
11,
10001019,
000000000000000000000000000000000900000000000008,
#GOGOEND
0,
0, //72
#END