This commit is contained in:
2026-03-04 23:59:27 +09:00
parent 6e0312f5b4
commit 4b4e2b8c98
1128 changed files with 668765 additions and 0 deletions

734
tja/194.tja Normal file
View File

@@ -0,0 +1,734 @@
//TJADB Project
TITLE:Ignis Danse
TITLEJA:Ignis Danse
SUBTITLE:--Yuuji Masubuchi
SUBTITLEJA:Yuji Masubuchi「太鼓の達人」より
BPM:246
WAVE:Ignis Danse.ogg
OFFSET:-1.615
DEMOSTART:9.331
COURSE:Oni
LEVEL:10
BALLOON:18,21
SCOREINIT:430
SCOREDIFF:103
#START
#SCROLL 0.7
3202,
0202,
0202,
000200002203,
000000000003,
000000000003,
002203002201,
11111110000
#SCROLL 1
3,//8
#GOGOSTART
001201101201,
101201101201,
101201101201,
101211101201,
001201101201,
101201101202,
001202001202,
001201202221,
001201101201,
101201101201,
101201101201,
101211101201,
001201101201,
101201101202,
001202001204,
000100111102,
102201101111,//25
#GOGOEND
100300122222,
#MEASURE 3/4
122222100,
#MEASURE 4/4
100300122222,
#MEASURE 3/4
122222100,
#MEASURE 4/4
100122222122,
#MEASURE 3/4
222100100,
#MEASURE 4/4
200200112100,
#MEASURE 3/4
200112101,
#MEASURE 4/4
100100102001,
#MEASURE 3/4
001200100,
#MEASURE 4/4
102001200200,
#MEASURE 3/4
111222111,
#MEASURE 4/4
7,
#MEASURE 3/4
008,
#MEASURE 4/4
201022100201,
#MEASURE 3/4
022100003,
#MEASURE 4/4
000101002111,
200201002111,
100201000300,
02,
#SCROLL 0.5
10020020,
01002000,
12202201,
202020100020002000200200,
10020020,
01002000,
#MEASURE 3/4
122022,
#MEASURE 4/4
102020
#BPMCHANGE 49.2
#SCROLL 2.5
100
#BPMCHANGE 246
#SCROLL 0.6
000,
10210202,
22101002,
02101201,
202020100020002000100200,
10210202,
22101002,
01202101,
#MEASURE 3/4
200020222020,
#MEASURE 4/4
#SCROLL 0.8
12212212,
21221212,
12211212,
222101010222,
12212212,
21221212,
12211212,
222101010222,
11122211,
12221120,
11201120,
100200000200202010101010,
#SCROLL 0.9
100201101001,
200101102111,
202001001202,
0000100000112000000
#SCROLL 1
00030,//77
#GOGOSTART
000100111201,
101201101201,
101201101201,
121201121201,
000100111201,
101201101201,
101211211211,
122210102201,
000100111201,
101201101201,
101201101201,
121201121201,
000100111201,
101201101201,
221101102221,
222122212221,
000300112101,
002201112102,
002102222102,
120201220201,
001201112101,
200000002000100000005000000000000008000000000000,
112101112101,
112111200203,
002001202201,
202201201202,
011211011211,
011211011211,
001201101211,
100201002102,
201002101211,
111222201007,
,
0008,
222211222211,
500000000000000000000000000000008000000000003000,
001201101201,
101201101201,
101201101201,
101211101201,
001201101201,
101201122203,
002203002203,
#MEASURE 2/4
002203,
#MEASURE 4/4
002211222211,
#MEASURE 2/4
222221,
#MEASURE 4/4
222222222221,//125
#GOGOEND
#END
COURSE:Hard
LEVEL:8
BALLOON:18,15,16,36
SCOREINIT:350
SCOREDIFF:100
#START
#SCROLL 0.7
0202,
0202,
0202,
000200002201,
000000000001,
000000000001,
000001000001,
11111110000
#SCROLL 0.9
1,//8
#GOGOSTART
001101101101,
101101101101,
101101101101,
102201102201,
001101101101,
101101100202,
000202000202,
000100300001,
001101101101,
101101101101,
101101101101,
102201102201,
001101101101,
101101100202,
000202000207,
,
00000800,//25
#GOGOEND
100100111100,
#MEASURE 3/4
111100200,
#MEASURE 4/4
100100111100,
#MEASURE 3/4
111100200,
#MEASURE 4/4
100100111100,
#MEASURE 3/4
111100200,
#MEASURE 4/4
200200111100,
#MEASURE 3/4
200111200,
#MEASURE 4/4
100100001001,
#MEASURE 3/4
012,
#MEASURE 4/4
102000100100,
#MEASURE 3/4
222222200,
#MEASURE 4/4
7,
#MEASURE 3/4
008,
#MEASURE 4/4
003000300003,
#MEASURE 3/4
000300005,
#MEASURE 4/4
000000000000000000000000000000000008000000000000,
2,
100001000300,
02,
#SCROLL 0.5
10020020,
01002000,
10020020,
222200000000,
10020020,
01002000,
#MEASURE 3/4
12,
#MEASURE 4/4
202020
#BPMCHANGE 49.2
#SCROLL 2.5
200
#BPMCHANGE 246
#SCROLL 0.6
000,
10010010,
20101002,
00101102,
2220,
10010010,
20101002,
00101102,
#MEASURE 3/4
24,
#MEASURE 4/4
#SCROLL 0.7
11110110,
12001111,
01101200,
100202020200,
11110110,
12001111,
01101200,
100202020200,
11110110,
12001110,
10201120,
11112222,
#SCROLL 0.8
7,
0008,
400003000400,
00300040000
#SCROLL 0.9
1,//77
#GOGOSTART
000100111100,
111101101100,
200200222202,
200000300001,
000100111100,
111101101100,
200200222200,
111100400001,
000100111100,
111101101100,
200200222202,
200000300001,
000100111100,
111101101100,
222202202205,
000000000000000000000000000000080000000000001000,
000100111100,
111101101100,
200200222202,
201102201101,
000100111100,
111101101100,
222200222200,
111100300001,
000100111100,
111101101100,
200200222202,
201102201101,
000100111100,
111101101100,
200200202200,
202200202007,
,
,
,
000000008001,
001101101101,
101101101101,
101101101101,
102201102201,
001101101101,
101101100202,
000101000202,
#MEASURE 2/4
000101,
#MEASURE 4/4
000202000101,
#MEASURE 2/4
000202,
#MEASURE 4/4
222222222222,//125
#GOGOEND
,
,
,
#END
COURSE:Normal
LEVEL:7
BALLOON:10,10,24
#START
#SCROLL 0.6
,
,
,
000000000003,
000000000003,
000000000003,
000003000003,
00000000000
#SCROLL 0.8
1,//8
#GOGOSTART
0111,
1111,
1111,
100100100001,
0111,
1112,
000200000205,
000000000000000000000000000000080000000000001000,
0111,
1111,
1111,
100100100001,
0111,
1112,
000200000207,
,
000000008000,//25
#GOGOEND
11,
#MEASURE 3/4
110,
#MEASURE 4/4
11,
#MEASURE 3/4
110,
#MEASURE 4/4
11,
#MEASURE 3/4
110,
#MEASURE 4/4
2222,
#MEASURE 3/4
,
#MEASURE 4/4
11,
#MEASURE 3/4
110,
#MEASURE 4/4
11,
#MEASURE 3/4
110,
#MEASURE 4/4
11,
#MEASURE 3/4
110,
#MEASURE 4/4
003000300003,
#MEASURE 3/4
000300003,
#MEASURE 4/4
,
2,
1003,
,
#SCROLL 0.5
12,
02,
12,
2,
12,
02,
#MEASURE 3/4
102,
#MEASURE 4/4
20
#BPMCHANGE 49.2
#SCROLL 2.5
0
#BPMCHANGE 246
#SCROLL 0.5
0,
1100,
10000001,
0101,
1,
1100,
10000001,
00100100,
#MEASURE 3/4
1,
#MEASURE 4/4
#SCROLL 0.6
10020010,
02001002,
00100200,
3,
10020010,
02001002,
00100200,
3,
10020010,
02001000,
1110,
1111,
#SCROLL 0.7
7,
0008,
3003,
00000030000
#SCROLL 0.8
3,//77
#GOGOSTART
0111,
1111,
2222,
100000000001,
0111,
1111,
22,
100100100001,
0111,
1111,
2222,
100000000001,
0111,
1111,
200000200004,
000000000001,
0111,
1111,
2222,
100100100001,
0111,
1111,
2222,
100100100001,
0111,
1111,
2222,
100100100001,
0111,
1111,
2222,
200200200007,
,
,
,
000000008001,
0111,
1111,
1111,
100100100001,
0111,
100100100202,
000101000202,
#MEASURE 2/4
000101,
#MEASURE 4/4
000202000101,
#MEASURE 2/4
000202,
#MEASURE 4/4
000101000303,//124
#GOGOEND
,
,
,
#END
COURSE:Easy
LEVEL:4
BALLOON:8,18
#START
#SCROLL 0.6
,
,
,
000000000003,
000000000003,
000000000003,
000003000003,
00000000000
#SCROLL 0.7
0,//8
#GOGOSTART
0101,
0101,
0101,
0101,
0101,
0102,
0202,
0110,
0101,
0101,
0101,
0101,
0101,
0102,
000200000207,
,
000000008000,//25
#GOGOEND
11,
#MEASURE 3/4
1,
#MEASURE 4/4
11,
#MEASURE 3/4
1,
#MEASURE 4/4
11,
#MEASURE 3/4
1,
#MEASURE 4/4
22,
#MEASURE 3/4
2,
#MEASURE 4/4
11,
#MEASURE 3/4
1,
#MEASURE 4/4
11,
#MEASURE 3/4
1,
#MEASURE 4/4
11,
#MEASURE 3/4
110,
#MEASURE 4/4
3,
#MEASURE 3/4
000000001,
#MEASURE 4/4
,
2,
1003,
,
#SCROLL 0.5
1,
1100,
1,
2,
1,
1100,
#MEASURE 3/4
1,
#MEASURE 4/4
20
#BPMCHANGE 49.2
#SCROLL 2.5
0
#BPMCHANGE 246
#SCROLL 0.5
0,
1,
1110,
0110,
1,
1,
1110,
00100100,
#MEASURE 3/4
1,
#MEASURE 4/4
#SCROLL 0.6
1001,
00001001,
0100,
3,
2002,
00002002,
0200,
4,
1001,
01,
11,
11,
3,
,
3003,
03,//77
#SCROLL 0.7
#GOGOSTART
0101,
0101,
0101,
0110,
0101,
0101,
0202,
0220,
0101,
0101,
0101,
0110,
0101,
0101,
000100100005,
000000000000000000000000000000080000000000000000,
0101,
0101,
0101,
0101,
0101,
0101,
0202,
0202,
0101,
0101,
0101,
0101,
0101,
0101,
0101,
000100000107,
,
,
,
000000008000,
0101,
0101,
0101,
0101,
0101,
000100000101,
000001000001,
#MEASURE 2/4
000001,
#MEASURE 4/4
000001000001,
#MEASURE 2/4
000003,
#MEASURE 4/4
000003000003,//124
#GOGOEND
,
,
,
#END