tja
This commit is contained in:
602
tja/197.tja
Normal file
602
tja/197.tja
Normal file
@@ -0,0 +1,602 @@
|
||||
//TJADB Project
|
||||
TITLE:The world is all one‼
|
||||
TITLEJA:The world is all one !!
|
||||
SUBTITLE:--Tomokazu Tashiro feat. 765PRO ALLSTARS/THE iDOLM@STER 2
|
||||
SUBTITLEJA:「アイドルマスター」より
|
||||
BPM:167
|
||||
WAVE:The world is all one!!.ogg
|
||||
OFFSET:-1.638
|
||||
DEMOSTART:87.820
|
||||
|
||||
COURSE:Edit
|
||||
LEVEL:8
|
||||
BALLOON:
|
||||
SCOREINIT:410,1240
|
||||
SCOREDIFF:103
|
||||
|
||||
#START
|
||||
11210210,
|
||||
12110210,
|
||||
11210120,
|
||||
1022101222102022,
|
||||
|
||||
1022102210221010,
|
||||
#BPMCHANGE 167.37
|
||||
1022102210221010,
|
||||
#BPMCHANGE 167
|
||||
1120112011221030,
|
||||
#BPMCHANGE 167.04
|
||||
03034040, //8
|
||||
|
||||
#BPMCHANGE 167
|
||||
1022202010002010,
|
||||
0011201010202000,
|
||||
1110222011102220,
|
||||
1010201000102022,
|
||||
|
||||
2012201020122010,
|
||||
2012201020122010,
|
||||
2210201022102010,
|
||||
20101103,
|
||||
03000003,
|
||||
03430440, //18
|
||||
|
||||
1111111111111111,
|
||||
1111111111111000,
|
||||
1010201000102011,
|
||||
2010201022102200,
|
||||
|
||||
2222222222222222,
|
||||
2222222222222000,
|
||||
1010201210102011,
|
||||
1010201220102210, //26
|
||||
|
||||
11111111,
|
||||
1010101010101011,
|
||||
11111111,
|
||||
1010101010101011,
|
||||
|
||||
1010101010101011,
|
||||
1010101010101011,
|
||||
11111111,
|
||||
3030403000304022, //34
|
||||
|
||||
1010200212102011,
|
||||
1010201120112011,
|
||||
1010200212102011,
|
||||
1010201120112011,
|
||||
|
||||
1010200212102011,
|
||||
2011201202102011,
|
||||
1010202212102012,
|
||||
2210200210102010,
|
||||
2212101222101022,
|
||||
1210101222101000, //44
|
||||
|
||||
100100200100100222200000,
|
||||
100100200100100222200100,
|
||||
100000200100100222200000,
|
||||
100000200100100222200000,
|
||||
|
||||
100100200100100222200000,
|
||||
100100200100100222200000,
|
||||
100000000000200000100000100000202020200000100100,
|
||||
1010222022202022, //52
|
||||
|
||||
1022102210001012,
|
||||
2210201000102022,
|
||||
1022102210101012,
|
||||
2210201000102000,
|
||||
1010201202102011,
|
||||
1010201202102010,
|
||||
1022102210201030,
|
||||
03033000, //60
|
||||
|
||||
#GOGOSTART
|
||||
1022202010202011,
|
||||
1022201010202000,
|
||||
1110222011102022,
|
||||
1120112011201120,
|
||||
|
||||
1010202212102010,
|
||||
1012201000102022,
|
||||
1010202212102022,
|
||||
1022102210112222, //68
|
||||
|
||||
1022202010202011,
|
||||
1022201010202000,
|
||||
1110222011102022,
|
||||
1120112011201120,
|
||||
|
||||
2012201020122010,
|
||||
2012201020122010,
|
||||
2210201022102010,
|
||||
20303304, //76
|
||||
|
||||
0040222010001000,
|
||||
30303304,
|
||||
0040222010001030,
|
||||
03330440,
|
||||
#GOGOEND
|
||||
|
||||
1111201111201111,
|
||||
2011112010004000,
|
||||
3,
|
||||
0,
|
||||
#END
|
||||
|
||||
|
||||
COURSE:Oni
|
||||
LEVEL:6
|
||||
BALLOON:18,18
|
||||
SCOREINIT:560,1830
|
||||
SCOREDIFF:148
|
||||
|
||||
#START
|
||||
11210110,
|
||||
11210220,
|
||||
11210110,
|
||||
1011201011102000,
|
||||
|
||||
10201021,
|
||||
#BPMCHANGE 167.37
|
||||
10201021,
|
||||
#BPMCHANGE 167
|
||||
10111113,
|
||||
#BPMCHANGE 167.04
|
||||
03034040, //8
|
||||
|
||||
#BPMCHANGE 167
|
||||
11221021,
|
||||
01221120,
|
||||
10001011,
|
||||
1000101000102011,
|
||||
1020100010201011,
|
||||
12121212,
|
||||
|
||||
1212,
|
||||
10303303,
|
||||
03000001,
|
||||
01110330, //18
|
||||
|
||||
7,
|
||||
00000800,
|
||||
1000200010102011,
|
||||
1010201110102010,
|
||||
|
||||
7,
|
||||
00000800,
|
||||
1000200010102011,
|
||||
1010201011102220, //26
|
||||
|
||||
1010201110002010,
|
||||
0010201010112000,
|
||||
1010201110002010,
|
||||
0010201010112000,
|
||||
|
||||
11211121,
|
||||
10210120,
|
||||
1122,
|
||||
3000403000304011, //34
|
||||
|
||||
1000201110102010,
|
||||
0010201110112010,
|
||||
1000201110102010,
|
||||
1010201110112010,
|
||||
|
||||
1000201110102010,
|
||||
1010201210102000,
|
||||
1000201210102010,
|
||||
01201121,
|
||||
22011202,
|
||||
21121210, //44
|
||||
|
||||
10211010,
|
||||
12111210,
|
||||
10211020,
|
||||
11211220,
|
||||
|
||||
10012010,
|
||||
11211210,
|
||||
10201121,
|
||||
000000100000500000000000000008000000000000000000, //52
|
||||
|
||||
30303021,
|
||||
01201120,
|
||||
30303021,
|
||||
0010201110102000,
|
||||
|
||||
1000201000102011,
|
||||
1010201111102000,
|
||||
30303033,
|
||||
03033000, //60
|
||||
|
||||
#GOGOSTART
|
||||
11221021,
|
||||
1020201110202000,
|
||||
1010201110102010,
|
||||
01111220,
|
||||
|
||||
1010201110102000,
|
||||
1020201110202000,
|
||||
11211020,
|
||||
500000000000000000000000000000000008000000000000, //68
|
||||
|
||||
11221021,
|
||||
1020201110202000,
|
||||
1010201110102000,
|
||||
11210220,
|
||||
|
||||
1000201110102010,
|
||||
1000201110102010,
|
||||
1000201110102010,
|
||||
1000101120100020, //76
|
||||
|
||||
000000500000000000000000000000000008000000000000,
|
||||
10101102,
|
||||
000000500000000000000000000008000000000000300000,
|
||||
03330440,
|
||||
#GOGOEND
|
||||
|
||||
11211211,
|
||||
21121040,
|
||||
3,
|
||||
0, //84
|
||||
#END
|
||||
|
||||
|
||||
COURSE:Hard
|
||||
LEVEL:5
|
||||
BALLOON:
|
||||
SCOREINIT:550,2330
|
||||
SCOREDIFF:155
|
||||
|
||||
#START
|
||||
0,
|
||||
0,
|
||||
0,
|
||||
0,
|
||||
|
||||
0303,
|
||||
#BPMCHANGE 167.37
|
||||
0303,
|
||||
#BPMCHANGE 167
|
||||
00111111,
|
||||
#BPMCHANGE 167.04
|
||||
01011010, //8
|
||||
|
||||
#BPMCHANGE 167
|
||||
10000011,
|
||||
01011000,
|
||||
1011,
|
||||
10110000,
|
||||
|
||||
1111,
|
||||
2222,
|
||||
1111,
|
||||
20101103,
|
||||
03000003,
|
||||
03330440, //18
|
||||
|
||||
6,
|
||||
000000000000000000000000000008000000000000000000,
|
||||
10210121,
|
||||
01212020,
|
||||
|
||||
6,
|
||||
000000000000000000000000000008000000000000000000,
|
||||
10210121,
|
||||
01210220, //26
|
||||
|
||||
10101011,
|
||||
01101010,
|
||||
10101011,
|
||||
01101010,
|
||||
|
||||
1111,
|
||||
10111010,
|
||||
10111010,
|
||||
33030330, //34
|
||||
|
||||
10201021,
|
||||
01212020,
|
||||
10201021,
|
||||
21212020,
|
||||
|
||||
10201120,
|
||||
11230000,
|
||||
10210123,
|
||||
00002022,
|
||||
11011101,
|
||||
11221120, //44
|
||||
|
||||
10211040,
|
||||
10211040,
|
||||
10211040,
|
||||
10211440,
|
||||
|
||||
10211040,
|
||||
10211040,
|
||||
1000201010104011,
|
||||
11212140, //52
|
||||
|
||||
10101023,
|
||||
03330000,
|
||||
10101123,
|
||||
03330120,
|
||||
|
||||
10210120,
|
||||
1122,
|
||||
500000000000000000000000000008000000000000300000,
|
||||
03033000, //60
|
||||
|
||||
#GOGOSTART
|
||||
1010201010202011,
|
||||
11211220,
|
||||
1010201020002011,
|
||||
11212020,
|
||||
|
||||
11201120,
|
||||
12010220,
|
||||
11201120,
|
||||
12201220, //68
|
||||
|
||||
1010201010202011,
|
||||
11211220,
|
||||
1010201020002011,
|
||||
11212020,
|
||||
|
||||
11201120,
|
||||
12201220,
|
||||
1111,
|
||||
20101103, //76
|
||||
|
||||
03000000,
|
||||
20101103,
|
||||
03000003,
|
||||
03330440,
|
||||
#GOGOEND
|
||||
|
||||
11122211,
|
||||
12223030,
|
||||
4,
|
||||
0, //84
|
||||
#END
|
||||
|
||||
|
||||
COURSE:Normal
|
||||
LEVEL:4
|
||||
BALLOON:
|
||||
SCOREINIT:590,3320
|
||||
SCOREDIFF:183
|
||||
|
||||
#START
|
||||
0,
|
||||
0,
|
||||
0,
|
||||
0,
|
||||
|
||||
0303,
|
||||
#BPMCHANGE 167.37
|
||||
0303,
|
||||
#BPMCHANGE 167
|
||||
0303,
|
||||
#BPMCHANGE 167.04
|
||||
0, //8
|
||||
|
||||
#BPMCHANGE 167
|
||||
10000001,
|
||||
0,
|
||||
11,
|
||||
1,
|
||||
|
||||
1111,
|
||||
2222,
|
||||
1111,
|
||||
00101103,
|
||||
03000003,
|
||||
03330440, //18
|
||||
|
||||
6,
|
||||
000000000000000000000000000008000000000000000000,
|
||||
0303,
|
||||
0344,
|
||||
|
||||
6,
|
||||
000000000000000000000000000008000000000000000000,
|
||||
0303,
|
||||
0404, //26
|
||||
|
||||
0110,
|
||||
2222,
|
||||
0110,
|
||||
2222,
|
||||
|
||||
0111,
|
||||
11,
|
||||
0111,
|
||||
30030030, //34
|
||||
|
||||
0110,
|
||||
2222,
|
||||
0110,
|
||||
2222,
|
||||
|
||||
0111,
|
||||
10030000,
|
||||
10110103,
|
||||
0022,
|
||||
11,
|
||||
1111, //44
|
||||
|
||||
10011040,
|
||||
10011040,
|
||||
10011040,
|
||||
10011040,
|
||||
|
||||
10011040,
|
||||
10011040,
|
||||
10011040,
|
||||
10011040, //52
|
||||
|
||||
10101003,
|
||||
03330000,
|
||||
10101003,
|
||||
03330000,
|
||||
|
||||
1212,
|
||||
1022,
|
||||
5,
|
||||
000000000000000008000000000000000000000000000000, //60
|
||||
|
||||
#GOGOSTART
|
||||
10101440,
|
||||
10101440,
|
||||
11,
|
||||
3333,
|
||||
|
||||
0101,
|
||||
0202,
|
||||
0101,
|
||||
0202, //68
|
||||
|
||||
10101440,
|
||||
10101440,
|
||||
11,
|
||||
3333,
|
||||
|
||||
0101,
|
||||
0202,
|
||||
1111,
|
||||
00101103, //76
|
||||
|
||||
03000000,
|
||||
00101103,
|
||||
03000003,
|
||||
03330440,
|
||||
#GOGOEND
|
||||
|
||||
30030030,
|
||||
03003030,
|
||||
4,
|
||||
0, //84
|
||||
#END
|
||||
|
||||
|
||||
COURSE:Easy
|
||||
LEVEL:3
|
||||
BALLOON:
|
||||
SCOREINIT:480,4460
|
||||
SCOREDIFF:170
|
||||
|
||||
#START
|
||||
0,
|
||||
0,
|
||||
0,
|
||||
0,
|
||||
|
||||
0303,
|
||||
#BPMCHANGE 167.37
|
||||
0303,
|
||||
#BPMCHANGE 167
|
||||
0303,
|
||||
#BPMCHANGE 167.04
|
||||
0, //8
|
||||
|
||||
#BPMCHANGE 167
|
||||
10000001,
|
||||
0,
|
||||
11,
|
||||
1,
|
||||
|
||||
11,
|
||||
22,
|
||||
1111,
|
||||
00101003,
|
||||
03000003,
|
||||
0300, //18
|
||||
|
||||
6,
|
||||
000000000000000000000000000008000000000000000000,
|
||||
0303,
|
||||
0344,
|
||||
|
||||
6,
|
||||
000000000000000000000000000008000000000000000000,
|
||||
0303,
|
||||
0404, //26
|
||||
|
||||
0110,
|
||||
0202,
|
||||
0110,
|
||||
0202,
|
||||
|
||||
0111,
|
||||
11,
|
||||
0111,
|
||||
30030030, //34
|
||||
|
||||
0110,
|
||||
0202,
|
||||
0110,
|
||||
0202,
|
||||
|
||||
0111,
|
||||
10030000,
|
||||
10101003,
|
||||
0022,
|
||||
11,
|
||||
1111, //44
|
||||
|
||||
500000000000000000000008000000000000400000000000,
|
||||
500000000000000000000008000000000000400000000000,
|
||||
500000000000000000000008000000000000400000000000,
|
||||
500000000000000000000008000000000000400000000000,
|
||||
|
||||
500000000000000000000008000000000000400000000000,
|
||||
500000000000000000000008000000000000400000000000,
|
||||
500000000000000000000008000000000000400000000000,
|
||||
500000000000000000000008000000000000400000000000, //52
|
||||
|
||||
10101003,
|
||||
0,
|
||||
10101003,
|
||||
0,
|
||||
|
||||
11,
|
||||
1022,
|
||||
5,
|
||||
000000000000000008000000000000000000000000000000, //60
|
||||
|
||||
#GOGOSTART
|
||||
00100440,
|
||||
00100440,
|
||||
0101,
|
||||
3333,
|
||||
|
||||
0101,
|
||||
0202,
|
||||
0101,
|
||||
0202, //68
|
||||
|
||||
00100440,
|
||||
00100440,
|
||||
0101,
|
||||
3333,
|
||||
|
||||
0101,
|
||||
0202,
|
||||
1111,
|
||||
00101003, //76
|
||||
|
||||
03000000,
|
||||
00101003,
|
||||
03000003,
|
||||
0300,
|
||||
#GOGOEND
|
||||
|
||||
30030030,
|
||||
03003030,
|
||||
4,
|
||||
0, //84
|
||||
#END
|
||||
Reference in New Issue
Block a user