tja
This commit is contained in:
425
tja/200.tja
Normal file
425
tja/200.tja
Normal file
@@ -0,0 +1,425 @@
|
||||
//TJADB Project
|
||||
TITLE:Star!!
|
||||
SUBTITLE:--Hidekazu Tanaka feat. new generations/THE iDOLM@STER Cinderella Girls
|
||||
BPM:178
|
||||
WAVE:Star!!.ogg
|
||||
OFFSET:-1.632
|
||||
DEMOSTART:62.860
|
||||
|
||||
COURSE:Edit
|
||||
LEVEL:9
|
||||
SCOREINIT:590
|
||||
SCOREDIFF:155
|
||||
|
||||
|
||||
#START
|
||||
|
||||
|
||||
20002222,
|
||||
00020220,
|
||||
20002220,
|
||||
20020000,
|
||||
20220222,
|
||||
02220020,
|
||||
20000111,
|
||||
000300300000000011200000,
|
||||
1111201112201122,
|
||||
2012222012222211,
|
||||
1010101010101011,
|
||||
1122112212211222,//12
|
||||
|
||||
#GOGOSTART
|
||||
1110201110102022,
|
||||
1120201000102012,
|
||||
1120201000101222,
|
||||
1022201000102022,
|
||||
1120201000102021,
|
||||
1220201000102011,
|
||||
2211221122121030,
|
||||
03304040,//20
|
||||
|
||||
#GOGOEND
|
||||
10201021,
|
||||
10220101,
|
||||
10220303,
|
||||
30440000,
|
||||
10201021,
|
||||
10220220,
|
||||
1110222011102220,
|
||||
3000003022112222,
|
||||
1010201210102011,
|
||||
1010201210222022,
|
||||
1010201210102010,
|
||||
0022202010101000,
|
||||
40440003,
|
||||
30330012,
|
||||
1011201110112022,
|
||||
1111222200003000,
|
||||
500000000000000000000008000000000000400000000000,
|
||||
500000000000000000000008000000000000400000000000,
|
||||
500000000000000000000008000000000000400000000000,
|
||||
500000000000000000000008000000100000200000100000,
|
||||
0010222010102010,
|
||||
0010221012202010,
|
||||
0010222010102010,
|
||||
2220222010112010,
|
||||
0011201120303030,
|
||||
4040400022112212,//46
|
||||
|
||||
#GOGOSTART
|
||||
1210201210102011,
|
||||
1010201202102011,
|
||||
1210201210112012,
|
||||
1011201000102022,
|
||||
1111201000102222,
|
||||
1011201000102012,
|
||||
2012201220200040,
|
||||
000000001010200000000000200200100100200200200200,
|
||||
1210201210102011,
|
||||
1010201202102011,
|
||||
1210201210112012,
|
||||
2012201000102000,
|
||||
1111201000102222,
|
||||
1011201000102010,
|
||||
2211221122121030,
|
||||
000300300000000011200000,
|
||||
1121211121211121,
|
||||
2111212112222030,//64
|
||||
|
||||
#GOGOEND
|
||||
|
||||
|
||||
#END
|
||||
|
||||
|
||||
COURSE:Oni
|
||||
LEVEL:6
|
||||
BALLOON:4
|
||||
SCOREINIT:750
|
||||
SCOREDIFF:213
|
||||
|
||||
|
||||
#START
|
||||
|
||||
|
||||
2,
|
||||
20020000,
|
||||
2,
|
||||
20020000,
|
||||
20220000,
|
||||
20220000,
|
||||
20000111,
|
||||
03300000,
|
||||
1110001110001110,
|
||||
0011100011100011,
|
||||
11111111,
|
||||
11113030,//12
|
||||
|
||||
#GOGOSTART
|
||||
1110201000102010,
|
||||
20210121,
|
||||
1110201000102220,
|
||||
20210121,
|
||||
10210121,
|
||||
20210120,
|
||||
11111113,
|
||||
03304040,//20
|
||||
|
||||
#GOGOEND
|
||||
10201021,
|
||||
10220101,
|
||||
10220303,
|
||||
30440000,
|
||||
10201021,
|
||||
10220220,
|
||||
11221120,
|
||||
30030000,
|
||||
1010201110102010,
|
||||
1010201110200020,
|
||||
1010201110102010,
|
||||
02221110,
|
||||
40440003,
|
||||
30330012,
|
||||
10101217,
|
||||
08,
|
||||
500000000000000000000008000000000000400000000000,
|
||||
500000000000000000000008000000000000400000000000,
|
||||
500000000000000000000008000000000000400000000000,
|
||||
500000000000000000000008000000100000200000100000,
|
||||
01221121,
|
||||
01221121,
|
||||
01221101,
|
||||
20201121,
|
||||
01210333,
|
||||
44403030,//46
|
||||
|
||||
#GOGOSTART
|
||||
1110200010102010,
|
||||
0010201110102000,
|
||||
1000200010102011,
|
||||
11210120,
|
||||
1110201000102011,
|
||||
11210002,
|
||||
02222204,
|
||||
0033,
|
||||
1110200010102010,
|
||||
0010201110102000,
|
||||
10201212,
|
||||
02120120,
|
||||
1110201000102011,
|
||||
11210120,
|
||||
10101113,
|
||||
0030300022204000,
|
||||
1110001110001110,
|
||||
0011100011100030,//64
|
||||
|
||||
#GOGOEND
|
||||
|
||||
|
||||
#END
|
||||
|
||||
|
||||
COURSE:Hard
|
||||
LEVEL:5
|
||||
BALLOON:13,7
|
||||
SCOREINIT:770
|
||||
SCOREDIFF:220
|
||||
|
||||
#START
|
||||
2,
|
||||
20020000,
|
||||
2,
|
||||
20020000,
|
||||
20220000,
|
||||
20220000,
|
||||
20000111,
|
||||
03300000,
|
||||
30030030,
|
||||
03003009,
|
||||
0009,
|
||||
8,//12
|
||||
|
||||
#GOGOSTART
|
||||
6,
|
||||
000000000000000000000008000000000000000000000000,
|
||||
0303,
|
||||
0303,
|
||||
6,
|
||||
000000000000000000000008000000000000000000000000,
|
||||
11111113,
|
||||
03300000,//20
|
||||
|
||||
#GOGOEND
|
||||
1210,
|
||||
10220101,
|
||||
10220303,
|
||||
30440000,
|
||||
1210,
|
||||
10220000,
|
||||
11102220,
|
||||
30030000,
|
||||
10211001,
|
||||
10221101,
|
||||
10220111,
|
||||
02221110,
|
||||
40440003,
|
||||
30330011,
|
||||
10101117,
|
||||
0008,
|
||||
500000000000000000000008000000000000400000000000,
|
||||
500000000000000000000008000000000000400000000000,
|
||||
500000000000000000000008000000000000400000000000,
|
||||
500000000000000000000008000000100000200000100000,
|
||||
01221021,
|
||||
01221101,
|
||||
01221101,
|
||||
2260,
|
||||
000000000000000000000000000000000008000000000000,
|
||||
44403030,//46
|
||||
|
||||
#GOGOSTART
|
||||
30201121,
|
||||
00210120,
|
||||
10201120,
|
||||
30030000,
|
||||
11110111,
|
||||
01110002,
|
||||
02222204,
|
||||
0033,
|
||||
30201121,
|
||||
00210120,
|
||||
10201112,
|
||||
02110000,
|
||||
11110111,
|
||||
01110020,
|
||||
20201113,
|
||||
03300040,
|
||||
6,
|
||||
000000000000000000000000000008000000000000300000,//64
|
||||
|
||||
#GOGOEND
|
||||
,
|
||||
,
|
||||
#END
|
||||
|
||||
COURSE:Normal
|
||||
LEVEL:4
|
||||
BALLOON:10,4,4,4,4,4,4,4
|
||||
|
||||
#START
|
||||
2,
|
||||
2,
|
||||
2,
|
||||
2,
|
||||
2,
|
||||
2,
|
||||
20000003,
|
||||
03300000,
|
||||
5,
|
||||
000000000000000000000000000000000008000000900000,
|
||||
0009,
|
||||
8,//12
|
||||
|
||||
#GOGOSTART
|
||||
6,
|
||||
000000000000000000000008000000000000000000000000,
|
||||
0303,
|
||||
0303,
|
||||
6,
|
||||
000000000000000000000008000000000000000000000000,
|
||||
10101003,
|
||||
03300000,//20
|
||||
|
||||
#GOGOEND
|
||||
0202,
|
||||
0202,
|
||||
00200500,
|
||||
000000000000000000000000000000000000000008000000,
|
||||
0202,
|
||||
0202,
|
||||
1212,
|
||||
78,
|
||||
0101,
|
||||
0101,
|
||||
0101,
|
||||
0101,
|
||||
78,
|
||||
78,
|
||||
33,
|
||||
3333,
|
||||
500000000000000000000008000000000000400000000000,
|
||||
500000000000000000000008000000000000400000000000,
|
||||
500000000000000000000008000000000000400000000000,
|
||||
500000000000000000000008000000000000400000000000,
|
||||
0404,
|
||||
0404,
|
||||
0404,
|
||||
0460,
|
||||
000000000000000000000000000000000008000000000000,
|
||||
33300000,//46
|
||||
|
||||
#GOGOSTART
|
||||
3333,
|
||||
3333,
|
||||
3333,
|
||||
3333,
|
||||
78,
|
||||
78,
|
||||
10101003,
|
||||
0044,
|
||||
3333,
|
||||
3333,
|
||||
3333,
|
||||
3333,
|
||||
78,
|
||||
7081,
|
||||
10000003,
|
||||
03300000,
|
||||
6,
|
||||
000000000000000000000000000008000000000000300000,//64
|
||||
|
||||
#GOGOEND
|
||||
,
|
||||
,
|
||||
#END
|
||||
|
||||
COURSE:Easy
|
||||
LEVEL:3
|
||||
BALLOON:8,4,4,4,4,4,4,4
|
||||
|
||||
#START
|
||||
2,
|
||||
2,
|
||||
2,
|
||||
2,
|
||||
20020000,
|
||||
20020000,
|
||||
20000003,
|
||||
,
|
||||
5,
|
||||
000000000000000000000000000000000008000000900000,
|
||||
0009,
|
||||
8,//12
|
||||
|
||||
#GOGOSTART
|
||||
6,
|
||||
000000000000000000000008000000000000000000000000,
|
||||
0303,
|
||||
0303,
|
||||
6,
|
||||
000000000000000000000008000000000000000000000000,
|
||||
10101003,
|
||||
,//20
|
||||
|
||||
#GOGOEND
|
||||
0202,
|
||||
0202,
|
||||
0200,
|
||||
,
|
||||
0202,
|
||||
0202,
|
||||
0202,
|
||||
78,
|
||||
0101,
|
||||
0101,
|
||||
0101,
|
||||
0101,
|
||||
78,
|
||||
78,
|
||||
33,
|
||||
3333,
|
||||
500000000000000000000008000000000000400000000000,
|
||||
500000000000000000000008000000000000400000000000,
|
||||
500000000000000000000008000000000000400000000000,
|
||||
500000000000000000000008000000000000400000000000,
|
||||
0404,
|
||||
0404,
|
||||
0404,
|
||||
0460,
|
||||
000000000000000000000000000008000000000000000000,
|
||||
33300000,//46
|
||||
|
||||
#GOGOSTART
|
||||
0303,
|
||||
0303,
|
||||
0303,
|
||||
0303,
|
||||
78,
|
||||
78,
|
||||
10101003,
|
||||
,
|
||||
0303,
|
||||
0303,
|
||||
0303,
|
||||
0303,
|
||||
78,
|
||||
78,
|
||||
10101003,
|
||||
,
|
||||
6,
|
||||
000000000000000000000008000000000000000000300000,//64
|
||||
|
||||
#GOGOEND
|
||||
,
|
||||
,
|
||||
#END
|
||||
Reference in New Issue
Block a user