tja
This commit is contained in:
571
tja/211.tja
Normal file
571
tja/211.tja
Normal file
@@ -0,0 +1,571 @@
|
||||
//TJADB Project
|
||||
TITLE:Oozora to Taiko no Odori
|
||||
TITLEJA:大空と太鼓の踊り
|
||||
SUBTITLE:--paraμ
|
||||
SUBTITLEJA:paraμ
|
||||
BPM:163
|
||||
WAVE:Oozora to Taiko no Odori.ogg
|
||||
OFFSET:-1.626
|
||||
DEMOSTART:1.622
|
||||
|
||||
COURSE:Oni
|
||||
LEVEL:9
|
||||
BALLOON:14
|
||||
SCOREINIT:330
|
||||
SCOREDIFF:90
|
||||
|
||||
|
||||
|
||||
#START
|
||||
|
||||
|
||||
2022201020222010,
|
||||
2022202020202010,
|
||||
2022201020222010,
|
||||
2022202010101020,
|
||||
1022102011221020,
|
||||
1122112210101020,
|
||||
1022102011221020,
|
||||
1122112210103000,
|
||||
1022202220222010,
|
||||
1022202220222010,
|
||||
1022201010222010,
|
||||
00003330,
|
||||
1020112210201122,
|
||||
1020112211221122,
|
||||
1020112210201122,
|
||||
1012202110103000,
|
||||
1010112210101122,
|
||||
1221122120202121,
|
||||
1010112210101122,
|
||||
1121121111120201,
|
||||
0010112210101121,
|
||||
0010112211212121,
|
||||
200000101010200000100000200100100100200100100100,
|
||||
2111120220203000,
|
||||
1020112210201122,
|
||||
1020112211221122,
|
||||
1020112210201122,
|
||||
1012202110102222,
|
||||
1020112210201122,
|
||||
1020112211221122,
|
||||
1020112210201122,
|
||||
1012202110103000,
|
||||
1000100202012201,
|
||||
0202211201120101,
|
||||
1000100202012210,
|
||||
0202021022210700,
|
||||
0008,
|
||||
|
||||
#GOGOSTART
|
||||
1122102011221020,
|
||||
1122112211221020,
|
||||
1122102011221020,
|
||||
1122112211202222,
|
||||
1122102011221020,
|
||||
1122112211221020,
|
||||
1122102011221020,
|
||||
1122112210103000,
|
||||
|
||||
#GOGOEND
|
||||
#MEASURE 5/8
|
||||
#BPMCHANGE 148
|
||||
3,
|
||||
#MEASURE 9/16
|
||||
,
|
||||
#MEASURE 5/8
|
||||
,
|
||||
#MEASURE 9/16
|
||||
000000022,
|
||||
#MEASURE 5/8
|
||||
1010220110,
|
||||
#MEASURE 9/16
|
||||
101012220,
|
||||
#MEASURE 5/8
|
||||
1010220110,
|
||||
#MEASURE 9/16
|
||||
201101120,
|
||||
#MEASURE 5/8
|
||||
1211220110,
|
||||
#MEASURE 9/16
|
||||
121122010,
|
||||
#MEASURE 5/8
|
||||
1211220110,
|
||||
#MEASURE 9/16
|
||||
202022010,
|
||||
#MEASURE 5/8
|
||||
1211220110,
|
||||
#MEASURE 9/16
|
||||
121122010,
|
||||
#MEASURE 5/8
|
||||
1211220110,
|
||||
1010220200,
|
||||
#MEASURE 9/16
|
||||
202022020,
|
||||
101011010,
|
||||
#MEASURE 5/8
|
||||
2020120201,
|
||||
#MEASURE 7/4
|
||||
000202020100100100100100100
|
||||
#BPMCHANGE 163
|
||||
#SCROLL 0.90797546012
|
||||
100000000000000000000000000000000000000000000000000000000,
|
||||
#MEASURE 4/4
|
||||
#SCROLL 1
|
||||
,
|
||||
00000022,
|
||||
222020202020202220202020,
|
||||
1010101022103000,
|
||||
1000100202011102,
|
||||
0101112101210120,
|
||||
1020102101211120,
|
||||
#MEASURE 2/4
|
||||
12021121,
|
||||
#MEASURE 4/4
|
||||
0121112111211121,
|
||||
500000000000000000000000008000000000400000000000,
|
||||
|
||||
#GOGOSTART
|
||||
1121112111211121,
|
||||
1121112111211121,
|
||||
1121112111211121,
|
||||
1121112110202222,
|
||||
1122112111221121,
|
||||
1122112111211221,
|
||||
1122112111221121,
|
||||
1122112110103000,
|
||||
2011201021112010,
|
||||
2011201020202010,
|
||||
2011201021112010,
|
||||
2011201020204000,
|
||||
|
||||
#GOGOEND
|
||||
1111,
|
||||
1000100010011010,
|
||||
1111,
|
||||
10101130,
|
||||
|
||||
|
||||
#END
|
||||
|
||||
|
||||
COURSE:Hard
|
||||
LEVEL:8
|
||||
BALLOON:12
|
||||
SCOREINIT:440
|
||||
SCOREDIFF:108
|
||||
|
||||
|
||||
#START
|
||||
|
||||
|
||||
#SCROLL 0.95
|
||||
2022200020222000,
|
||||
2022202020202000,
|
||||
2022200020222000,
|
||||
2022202020202000,
|
||||
1011100010111000,
|
||||
1011101010101000,
|
||||
1011100010111000,
|
||||
1011101010101000,
|
||||
1020202220222000,
|
||||
1020202220222000,
|
||||
1022200010222000,
|
||||
00003330,
|
||||
1010111010101110,
|
||||
1010111010101000,
|
||||
1010111010101110,
|
||||
1022201110101000,
|
||||
1110111010101000,
|
||||
1110111020202000,
|
||||
1110111010101002,
|
||||
0020020022220201,
|
||||
0010111010101001,
|
||||
0010111011101010,
|
||||
2011201122222000,
|
||||
1110220110103000,
|
||||
1010111010101110,
|
||||
1010111010101000,
|
||||
1010111010101110,
|
||||
1022201110101000,
|
||||
1010111010101110,
|
||||
1010111010101000,
|
||||
1010111010101110,
|
||||
1022201110103000,
|
||||
1000100101011101,
|
||||
0202022202220200,
|
||||
1000100101010110,
|
||||
0202022022220700,
|
||||
0008,
|
||||
|
||||
#GOGOSTART
|
||||
1011102010111020,
|
||||
1011101010101020,
|
||||
1111102011111020,
|
||||
1011101010201111,
|
||||
1011102010111020,
|
||||
1011101010101020,
|
||||
1111102011111020,
|
||||
1011101010101000,
|
||||
|
||||
#GOGOEND
|
||||
#MEASURE 5/8
|
||||
#BPMCHANGE 148
|
||||
3,
|
||||
#MEASURE 9/16
|
||||
0,
|
||||
#MEASURE 5/8
|
||||
0,
|
||||
#MEASURE 9/16
|
||||
0,
|
||||
#MEASURE 5/8
|
||||
1010110000,
|
||||
#MEASURE 9/16
|
||||
101011000,
|
||||
#MEASURE 5/8
|
||||
1010110000,
|
||||
#MEASURE 9/16
|
||||
101102220,
|
||||
#MEASURE 5/8
|
||||
1010110000,
|
||||
#MEASURE 9/16
|
||||
202022000,
|
||||
#MEASURE 5/8
|
||||
1010110000,
|
||||
#MEASURE 9/16
|
||||
222201000,
|
||||
#MEASURE 5/8
|
||||
1010110000,
|
||||
#MEASURE 9/16
|
||||
202022000,
|
||||
#MEASURE 5/8
|
||||
1010110000,
|
||||
2020220000,
|
||||
#MEASURE 9/16
|
||||
202002020,
|
||||
010100101,
|
||||
#MEASURE 5/8
|
||||
2020010100,
|
||||
#MEASURE 7/4
|
||||
000500000000000000000000008
|
||||
#BPMCHANGE 163
|
||||
#SCROLL 0.86257668711
|
||||
000000000000000000000000000000000000000000000000000000000,
|
||||
#MEASURE 4/4
|
||||
#SCROLL 0.95
|
||||
,
|
||||
,
|
||||
101100111100,
|
||||
1010101022101000,
|
||||
1000100101011101,
|
||||
0202011101201020,
|
||||
1020102101201020,
|
||||
#MEASURE 2/4
|
||||
10201021,
|
||||
#MEASURE 4/4
|
||||
0120102010201020,
|
||||
50000840,
|
||||
|
||||
#GOGOSTART
|
||||
1011102010111020,
|
||||
1011101010101020,
|
||||
1111102011111020,
|
||||
1011101010202222,
|
||||
1011102010111020,
|
||||
1011101010101020,
|
||||
1111102011111020,
|
||||
1011101010101000,
|
||||
2010201020112010,
|
||||
21212221,
|
||||
2010201020112010,
|
||||
21212220,
|
||||
#GOGOEND
|
||||
1111,
|
||||
1000100010011010,
|
||||
1111,
|
||||
10101110,
|
||||
|
||||
|
||||
#END
|
||||
|
||||
|
||||
COURSE:Normal
|
||||
LEVEL:6
|
||||
BALLOON:4,12,4,4
|
||||
SCOREINIT:540
|
||||
SCOREDIFF:140
|
||||
|
||||
|
||||
#START
|
||||
|
||||
|
||||
#SCROLL 0.85
|
||||
,
|
||||
,
|
||||
1111,
|
||||
10101110,
|
||||
11101110,
|
||||
11111110,
|
||||
11101110,
|
||||
11111110,
|
||||
11102220,
|
||||
11102220,
|
||||
11101110,
|
||||
00002220,
|
||||
11111110,
|
||||
11111110,
|
||||
11101110,
|
||||
11102220,
|
||||
01010111,
|
||||
01010111,
|
||||
01010111,
|
||||
02020222,
|
||||
01010111,
|
||||
01010111,
|
||||
2222,
|
||||
20001110,
|
||||
11111110,
|
||||
11111110,
|
||||
11101110,
|
||||
11102220,
|
||||
11111110,
|
||||
11111110,
|
||||
11101110,
|
||||
11102220,
|
||||
3301,
|
||||
7008,
|
||||
3301,
|
||||
7,
|
||||
0008,
|
||||
|
||||
#GOGOSTART
|
||||
11101110,
|
||||
11111110,
|
||||
11101110,
|
||||
11112220,
|
||||
11101110,
|
||||
11111110,
|
||||
11101110,
|
||||
11112220,
|
||||
|
||||
#GOGOEND
|
||||
#MEASURE 5/8
|
||||
#BPMCHANGE 148
|
||||
,
|
||||
#MEASURE 9/16
|
||||
,
|
||||
#MEASURE 5/8
|
||||
,
|
||||
#MEASURE 9/16
|
||||
,
|
||||
#MEASURE 5/8
|
||||
1000010000,
|
||||
#MEASURE 9/16
|
||||
200002000,
|
||||
#MEASURE 5/8
|
||||
11,
|
||||
#MEASURE 9/16
|
||||
200002000,
|
||||
#MEASURE 5/8
|
||||
11,
|
||||
#MEASURE 9/16
|
||||
200002000,
|
||||
#MEASURE 5/8
|
||||
11,
|
||||
#MEASURE 9/16
|
||||
200002000,
|
||||
#MEASURE 5/8
|
||||
11,
|
||||
#MEASURE 9/16
|
||||
200002000,
|
||||
#MEASURE 5/8
|
||||
11,
|
||||
22,
|
||||
#MEASURE 9/16
|
||||
5,
|
||||
000080000,
|
||||
#MEASURE 5/8
|
||||
11,
|
||||
#MEASURE 7/4
|
||||
100000000
|
||||
#BPMCHANGE 163
|
||||
#SCROLL 0.7717791411
|
||||
3000000000000000000,
|
||||
#MEASURE 4/4
|
||||
#SCROLL 0.85
|
||||
,
|
||||
,
|
||||
1110,
|
||||
11111000,
|
||||
3301,
|
||||
7008,
|
||||
3301,
|
||||
#MEASURE 2/4
|
||||
12,
|
||||
#MEASURE 4/4
|
||||
7008,
|
||||
11111020,
|
||||
|
||||
#GOGOSTART
|
||||
11101110,
|
||||
11111110,
|
||||
11101110,
|
||||
11112220,
|
||||
11101110,
|
||||
11111110,
|
||||
11101110,
|
||||
11112220,
|
||||
21212121,
|
||||
21212120,
|
||||
21212121,
|
||||
21212120,
|
||||
|
||||
#GOGOEND
|
||||
,
|
||||
,
|
||||
,
|
||||
10101110,
|
||||
|
||||
|
||||
#END
|
||||
|
||||
|
||||
COURSE:Easy
|
||||
LEVEL:4
|
||||
BALLOON:8,17,6,6,8,8
|
||||
SCOREINIT:600
|
||||
SCOREDIFF:165
|
||||
|
||||
|
||||
#START
|
||||
|
||||
|
||||
#SCROLL 0.85
|
||||
,
|
||||
,
|
||||
,
|
||||
2220,
|
||||
1111,
|
||||
1110,
|
||||
1111,
|
||||
1110,
|
||||
34,
|
||||
34,
|
||||
33,
|
||||
3,
|
||||
1111,
|
||||
1110,
|
||||
1111,
|
||||
1110,
|
||||
50000800,
|
||||
1110,
|
||||
50000800,
|
||||
2220,
|
||||
50000800,
|
||||
1110,
|
||||
50000800,
|
||||
2220,
|
||||
1111,
|
||||
1110,
|
||||
1111,
|
||||
1110,
|
||||
1111,
|
||||
1110,
|
||||
1111,
|
||||
1110,
|
||||
7,
|
||||
0008,
|
||||
7,
|
||||
,
|
||||
0008,
|
||||
|
||||
#GOGOSTART
|
||||
1111,
|
||||
1112,
|
||||
1111,
|
||||
1130,
|
||||
1111,
|
||||
1112,
|
||||
1111,
|
||||
1113,
|
||||
#GOGOEND
|
||||
#MEASURE 5/8
|
||||
#BPMCHANGE 148
|
||||
,
|
||||
#MEASURE 9/16
|
||||
,
|
||||
#MEASURE 5/8
|
||||
,
|
||||
#MEASURE 9/16
|
||||
,
|
||||
#MEASURE 5/8
|
||||
7,
|
||||
#MEASURE 9/16
|
||||
08,
|
||||
#MEASURE 5/8
|
||||
7,
|
||||
#MEASURE 9/16
|
||||
08,
|
||||
#MEASURE 5/8
|
||||
,
|
||||
#MEASURE 9/16
|
||||
,
|
||||
#MEASURE 5/8
|
||||
,
|
||||
#MEASURE 9/16
|
||||
,
|
||||
#MEASURE 5/8
|
||||
7,
|
||||
#MEASURE 9/16
|
||||
08,
|
||||
#MEASURE 5/8
|
||||
7,
|
||||
08,
|
||||
#MEASURE 9/16
|
||||
5,
|
||||
000080000,
|
||||
#MEASURE 5/8
|
||||
500000000000000000000000000008,
|
||||
#MEASURE 7/4
|
||||
100000000
|
||||
#BPMCHANGE 163
|
||||
#SCROLL 0.7717791411
|
||||
3000000000000000000,
|
||||
#MEASURE 4/4
|
||||
#SCROLL 0.85
|
||||
,
|
||||
,
|
||||
11,
|
||||
1112,
|
||||
7,
|
||||
0008,
|
||||
7,
|
||||
#MEASURE 2/4
|
||||
08,
|
||||
#MEASURE 4/4
|
||||
11,
|
||||
1112,
|
||||
|
||||
#GOGOSTART
|
||||
1111,
|
||||
1112,
|
||||
1111,
|
||||
1130,
|
||||
1111,
|
||||
1112,
|
||||
1111,
|
||||
1113,
|
||||
2222,
|
||||
2222,
|
||||
2222,
|
||||
2222,
|
||||
|
||||
#GOGOEND
|
||||
,
|
||||
,
|
||||
,
|
||||
00002220,
|
||||
|
||||
|
||||
#END
|
||||
|
||||
Reference in New Issue
Block a user