This commit is contained in:
2026-03-04 23:59:27 +09:00
parent 6e0312f5b4
commit 4b4e2b8c98
1128 changed files with 668765 additions and 0 deletions

428
tja/214.tja Normal file
View File

@@ -0,0 +1,428 @@
//TJADB Project
TITLE:Jikuuchou Jikuu 1-ka
TITLEJA:時空庁時空1課
SUBTITLE:--Kawagen Collagen feat. unmo
SUBTITLEJA:feat.unmo
BPM:180
WAVE:Jikuuchou Jikuu 1-ka.ogg
OFFSET:-1.852
DEMOSTART:44.518
COURSE:Oni
LEVEL:9
SCOREINIT:350
SCOREDIFF:90
#START
1022101220100010,
0022101220100010,
0022101220100011,
2212201122101112,
1000401110102010,
0022101220100010,
0022101220100010,
0022104000400000,
1022102011201020,
1022102011201020,
1022102011201020,
1120102110202222,
1022102011201020,
1022102011201020,
1022102011202020,
0011103000400000,
1021100110211020,
1021101000102210,
1011202110122022,
1011201000102020,
1010211010202110,
1011201000102021,
1010221010102210,
1011202000300022,
1011102210112010,
1011102210112010,
1011102210112010,
1011102210112010,
1011202210112022,
1011202210112022,
1011202210112010,
3030303000400022,//32
#GOGOSTART
1000200010102220,
1112201000102010,
0010221020102012,
2212201222122020,
1000200010102220,
1112201000102010,
0010221020102012,
2212201222122020,
1000200010102220,
1112201000102010,
0010221020102012,
2212201222122020,
1000200010102220,
1112201000102010,
0010221020102012,
2212201222122020,//48
#GOGOEND
1021102210211022,
1021102210211022,
1021102210211022,
1021102210211022,
1021102210211022,
1021102210211022,
1021102210211022,
1021122110211220,
2221112220102010,
0010100022102010,
2210201022102010,
0200200100200200,
0000300010112000,
1011201010112000,
1011201011211010,
01110400,//64
#GOGOSTART
0000300010102220,
1112201000102010,
0010221020102012,
2212201222122022,
1022201020112222,
1011221022102210,
1110221022102210,
2212221020102010,
1011201120112022,
1011201120112110,
2201102201102010,
1102201102102022,
100020001000200010002000100000200200200000100200,
1120112011202022,
1010221222122012,
2010210210102000,
#MEASURE 9/8
222210102220112020,
222210102220102210,
222210102220101222,//84
#MEASURE 4/4
0300,
#GOGOEND
#END
COURSE:Hard
LEVEL:8
SCOREINIT:450
SCOREDIFF:113
#START
1011102220100010,
0011101020100010,
0011101020100010,
0011102000101110,
1011102220100010,
0011101020100010,
0011101020100010,
01140400,
1022201110200020,
0022201110200020,
0022201110200020,
0022201110102220,
1022201110200020,
0022201110200020,
0022201022202020,
0011104000400000,
0010100110202020,
1000110100202020,
1022201010222010,
1022201000100000,
0011101000222020,
1011101000202020,
1010001010222010,
11110200,
1020102210201020,
1020102210201020,
1020102210201020,
1020102210201020,
1020102210201020,
1020102210201020,
1020102210201020,
1022101000400000,//32
#GOGOSTART
10201120,
1022201000102010,
0010222010002050,
000000000008000000500000000000000008000000000000,
10201120,
1022201000102010,
0010222010002050,
000000000008000000500000000000000008000000000000,
10201120,
1022201000102010,
0010222010002050,
000000000008000000500000000000000008000000000000,
10201120,
1022201000102010,
0010222010002050,
000000000008000000500000000000000008000000000000,//48
#GOGOEND
1001102010011020,
1001102010011020,
1001102010011020,
1001102010011020,
1001102010011020,
1001102010011020,
1001102010011020,
1001102010001111,
500000000000000000000008000000100000000000100000,
0010100020111000,
1110202011102010,
0200200100200200,
1000200010222000,
1022201010102000,
1022200020202020,
0011101000400000,//64
#GOGOSTART
00301120,
1022201000102010,
0010222010002050,
000000000008000000500000000000000008000000000000,
1022201010222000,
1011101000102220,
0010222020202010,
2220222020102010,
1011101110222020,
11212120,
2201102201102000,
1102201102201000,
222222200400,
1110111011104000,
01212121,
0010220220104000,
#MEASURE 9/8
222020111010222020,
111010222020111010,
222020111010202022,
#MEASURE 4/4
0300,//84
#GOGOEND
,
#END
COURSE:Normal
LEVEL:6
BALLOON:6,6,6,6,6,6,6,6,6
SCOREINIT:620
SCOREDIFF:140
#START
10102201,
01102201,
01102205,
000000000008000000500000000000000008000000000000,
10102201,
01102201,
01102201,
00040400,
10201102,
02201102,
02201107,
0008,
10201102,
02201102,
02201101,
00040400,
10201022,
20110220,
10111022,
20110200,
01110220,
10110220,
11011020,
10110400,
10111020,
10111020,
10111020,
10111020,
10222010,
10222010,
10222010,
11110400,//32
#GOGOSTART
0111,
100000000000200000200000000000600000000000000008,
00101017,
0008,
0111,
100000000000200000200000000000600000000000000008,
00101017,
0008,
0111,
200000200000200000200000000000600000000000000008,
00101017,
0008,
0111,
200000200000200000200000000000600000000000000008,
0101017,
0008,//48
#GOGOEND
10101011,
10222020,
10101011,
10222000,
10101022,
20111020,
10111022,
20111020,
500000000000000000000008000000100000000000100000,
01102001,
01102005,
000000000000000000000000000000000008000000000000,
10201002,
02202002,
02202022,
00030400,//64
#GOGOSTART
0311,
100000000000200000200000000000600000000000000008,
00101017,
0008,
0111,
100000000000200000200000000000600000000000000008,
00101017,
0008,
0111,
200000200000200000200000000000600000000000000008,
00101017,
0008,
0111,
200000200000200000200000000000600000000000000008,
00101017,
0008,
#MEASURE 9/8
440330440,
330440330,
440330440,
#MEASURE 4/4
0300,//84
#GOGOEND
,
#END
COURSE:Easy
LEVEL:4
BALLOON:3,3
SCOREINIT:550
SCOREDIFF:158
#START
10000101,
00102001,
00102005,
000000000000000000000008000000000000000000000000,
10000101,
00102001,
00102001,
00020200,
10000101,
00000101,
00000101,
00020000,
10000101,
00000101,
00000101,
00040400,
11,
10020000,
11,
10020200,
02000200,
10020000,
11,
10020200,
1111,
10010000,
1111,
10020200,
02000200,
10010020,
11,
10020400,//32
#GOGOSTART
0110,
20020200,
00101006,
000000000000000000000000000000000008000000000000,
0110,
20020200,
00101006,
000000000000000000000000000000000008000000000000,
0110,
20020200,
00101006,
000000000000000000000000000000000008000000000000,
0110,
20020200,
00101006,
000000000000000000000000000000000008000000000000,//48
#GOGOEND
1111,
2222,
1111,
2220,
1111,
2220,
1111,
22,
70000008,
0120,
00102007,
0008,
0110,
1220,
10202004,
00040400,//64
#GOGOSTART
0110,
20020200,
00101006,
000000000000000000000000000000000008000000000000,
0110,
20020200,
00101006,
000000000000000000000000000000000008000000000000,
0110,
20020200,
00101006,
000000000000000000000000000000000008000000000000,
0110,
20020200,
00101006,
000000000000000000000000000000000008000000000000,
#MEASURE 9/8
434,
343,
434,
#MEASURE 4/4
0300,//84
#GOGOEND
,
#END