This commit is contained in:
2026-03-04 23:59:27 +09:00
parent 6e0312f5b4
commit 4b4e2b8c98
1128 changed files with 668765 additions and 0 deletions

860
tja/243.tja Normal file
View File

@@ -0,0 +1,860 @@
//TJADB Project
TITLE:Joubutsu 2000
TITLEJA:万戈イム-一ノ十
SUBTITLE:--Linda AI-CUE feat. Shoko
BPM:220
WAVE:Joubutsu 2000.ogg
OFFSET:-2.300
DEMOSTART:3.386
COURSE:Oni
LEVEL:10
BALLOON:3,2,2,3
SCOREINIT:370
SCOREDIFF:88
#START
#BARLINEOFF
,
#BARLINEON
#SCROLL 0.5
#BRANCHSTART p,-1,-1
#N
#MEASURE 8/4
,
,
,
,
#MEASURE 4/4
,
,
,
,
,
,
,
,
,
,
,
,
,
,
,
,
,
,
,
,
,
,
,
,
,
,
,
,
,
,
,
,
,
,
,
,
,
,
,
,
,
,
,
,
#MEASURE 8/4
,
,
,
,
,
,
,
,
#MEASURE 4/4
,
,
,
,
,
,
,
,
,
,
,
,
,
,
,
,
,
,
#E
#MEASURE 8/4
,
,
,
,
#MEASURE 4/4
,
,
,
,
,
,
,
,
,
,
,
,
,
,
,
,
,
,
,
,
,
,
,
,
,
,
,
,
,
,
,
,
,
,
,
,
,
,
,
,
,
,
,
,
#MEASURE 8/4
,
,
,
,
,
,
,
,
#MEASURE 4/4
,
,
,
,
,
,
,
,
,
,
,
,
,
,
,
,
,
,
#M
#MEASURE 8/4
#LYRIC Jai faim...
1000200010102000
#LYRIC Trois (Du zi e le...)
1011201000102020,
100020001010200010
#LYRIC Sept
11202010112020,
#LYRIC Du zi e le...
1000200010102000
#LYRIC Cinq
1011201000102020,
1000200010102000
#LYRIC Six
1011202010112121,
#MEASURE 4/4
#SCROLL 1
1020112010112010,
#LYRIC Quatre
2010112020101121,
1020112010112010,
20
#LYRIC Trois (Du zi e le...)
10112020101121,
1010201120201111,
10
#LYRIC Sept
10201120201111,
500000000000000000000008000000000000200100100100,
#LYRIC Cinq
200000200000200010001000200000200000100100100000,
#LYRIC Du zi e le...
1020111020201110,
10
#LYRIC Six
20111020201110,
2011111020111110,
#LYRIC Quatre
2010201120101120,
1011201120122210,
22
#LYRIC Trois
10210120122010,
#LYRIC Du zi e le...
1120112010122210,
#LYRIC Sept
1020112170080000,
1110201210201110,
200000
#LYRIC Cinq
100200100000200000100020001000200010002000,
#LYRIC Du zi e le...
1110202120201110,
200000
#LYRIC Six
200100200000200000100020001000200010002000,
100000200200200000002000100000200200200000001000,
#LYRIC Quatre
200000200200200020001000200010002000
#LYRIC Du zi e le...
200000001000,
222102111202,
#LYRIC Trois
100100100000200020002000100100100000200020002000,
#LYRIC Jai faim...
100100100100200010001000200100100100200010001000,
#LYRIC Sept
200010001000200020002000101010002000200010101000,
222112211222,
10
#LYRIC Cinq
21012022102020,
#LYRIC Du zi e le...
1021012011202020,
100000
#LYRIC Six
200100000100200000200200100000200010002000,
112212121122,
#LYRIC Quatre
101010100200101010100200100200200200100000000000,
1020102210102101,
#LYRIC Trois (Du zi e le...)
2020201120120210,
2020102210102101,
20
#LYRIC Sept
20201120120210,
2010122210120210,
12
#LYRIC Cinq
02101121112011,
2021111121011111,
21
#LYRIC Six
20111211011211,
1010102121112121,
#LYRIC Quatre
1121201011212110,
#LYRIC Jai faim!
21010102,
1,
#GOGOSTART
#MEASURE 8/4
#SCROLL 0.5
1000001020010010
#LYRIC
10121211,
200000000000
#LYRIC Quand doit-on mettre
2000000020001000000010000000000020000000000010002000
#LYRIC un terme aux choses
10000000200000002002002002000000,
10000010002010002000002000002000
#LYRIC
2010200010002000,
100010002000000010001000200000001000002000002000002000001000002000002000002000001000200020002000,
1000000000001000200000
#LYRIC Decider par soi meme,
00000020001000000000001000200000000000200020002000100100100100200200
#LYRIC encore faut-il quon ose
200200,
11112222211111211110001010202020,
#LYRIC
100000000000100000002000100000002000200000002000100020000000200020000000
#LYRIC Mais la plupart de temps,
100020000000200010001000,
20010010010020000020000020010010010020000020000010000000
#LYRIC Cela nous est dicte soudainement
1000100000002000100000001000100000002000,
#MEASURE 4/4
1222,
#SCROLL 0.75
#LYRIC
12020202,
101212112022,
1020201120202011,
201010201010,
2010221020
#LYRIC Cela etant dit
102210,
211211211211,
#LYRIC Quand tout prend fin ainsi
2222112222112222,
10201120,
1010201000112000,
#SCROLL 1
2211222211222211,
2222112222111000,
2011
#LYRIC En setant donne pleinement
2011,
5000000000000000000000000000000000000000000000080000000000000000,
1121211011212110,
#LYRIC Sans gros mecontentement
7080221170802211,
78
#LYRIC
30,
4,
#BRANCHSTART p,999,999
#N
,
#E
,
#M
,
#GOGOEND
#BRANCHSTART p,-1,-1
#N
,
#MEASURE 8/4
,
,
,
,
#MEASURE 4/4
,
,
,
,
,
,
,
,
,
,
,
,
,
,
,
,
,
#E
,
#MEASURE 8/4
,
,
,
,
#MEASURE 4/4
,
,
,
,
,
,
,
,
,
,
,
,
,
,
,
,
,
#M
#LYRIC Trois
,
#MEASURE 8/4
#SCROLL 0.5
100020001010200010
#LYRIC Sept
11201000102000,
100020001010200010
#LYRIC Cinq
11201000102000,
100020001010200010
#LYRIC Six
11201000102010,
1000200010102000
#LYRIC Quatre
1011201000102010,
#MEASURE 4/4
#SCROLL 1
1020201012021011,
#LYRIC Trois
2020202011122211,
1020201012021011,
20002000
#LYRIC Sept
2000200000200100100000100100200100100000,
#LYRIC
1011202101201120,
#LYRIC Hara hetta
1021102101221020,
#LYRIC
1022202210211020,
1020120210221020,
1011202101201120,
1022102101221020,
#SCROLL 3
600000000000000000000000000000000000000000000008,
#SCROLL 1
,
,
#SCROLL 2
3,
#SCROLL 1.33
#LYRIC ③
1112
#LYRIC ③⑦
11111112
#LYRIC ③⑦⑤
1111,
12
#LYRIC ③⑦⑤⑥
1111112
#LYRIC ③⑦⑤⑥④
1111222,
2,
#END
COURSE:Hard
LEVEL:8
BALLOON:10,12,2,2,2,15
SCOREINIT:540
SCOREDIFF:125
#START
#BARLINEOFF
,
#BARLINEON
#SCROLL 0.5
#MEASURE 8/4
1020112010210120,
1020112010220220,
1020112010210120,
1020112010220220,
#SCROLL 1
#MEASURE 4/4
10101212,
10102121,
20201212,
10102121,
20201120,
11210120,
5000000000000000000000000000000000000000000000080000000000000000,
4,
10222011,
10222011,
10222011,
20211011,
20211022,
20111022,
20212012,
10111000,
10201210,
100200111100,
10201210,
100200111100,
12021020,
12021020,
222200111100,
1110000011100000,
100222200222,
200111100222,
200111100111,
10212000,
10202120,
100100100100100100202020,
100100100100100100202020,
1010111011101000,
12101210,
22201210,
12101210,
22201210,
21212112,
21212112,
2011100020111000,
2011101110002000,
2011100020111000,
2011101110002000,
21010102,
1,
#SCROLL 0.5
#GOGOSTART
#MEASURE 8/4
100000102000000010111010,
200000102000001020002220,
100000102000000010111010,
2000000000000000200000005000000000000000000000000000000800000000,
100020001000200700000000,
0000800000111022,
100000100100100000200200100000002000000010000000,
2000101010000000200010101000000020000000000100000000020000000000,
#MEASURE 4/4
1222,
#SCROLL 0.75
1222,
100010002000,
2000001110200011,
111211,
2000111020001110,
7,
08,
10201120,
11210120,
#SCROLL 1
5,
0000000000000000000000000000000800000000000000001000000000000000,
20112011,
5000000000000000000000000000000000000000000000000000000000000008,
,
7878,
7830,
4,
,//76
#GOGOEND
,
#SCROLL 0.5
#MEASURE 8/4
1020112010210120,
1020112010220220,
1020112010210120,
1020112010220220,
#SCROLL 1
#MEASURE 4/4
10211211,
22221121,
10211211,
202020200200100100200100,
10221221,
10221221,
1022200010222000,
1022202220001020,
1022200010222000,
1022202220001020,
#SCROLL 3
6000000000000000000000000000000000000000000000000000000000000008,
#SCROLL 1
,
,
#SCROLL 2
3,
#SCROLL 1.33
7,
,
8,
,
,
,
#END
COURSE:Normal
LEVEL:7
BALLOON:6,8,9,2,2,2,13
SCOREINIT:770
SCOREDIFF:205
#START
#BARLINEOFF
,
#BARLINEON
#SCROLL 0.5
#MEASURE 8/4
10111020,
10222010,
11101110,
3330,
#SCROLL 1
#MEASURE 4/4
1011,
12,
1022,
21,
1110,
1110,
5008,
3,
12,
12,
5000000000000000000000000000000000000000000000000000000000000008,
0022,
12,
1022,
5000000000000000000000000000000000000000000000080000000000000000,
4,
12,
12,
5000000000000000000000000000000000000000000000000000000000000008,
,
1212,
12,
1212,
3330,
1222,
1222,
1212,
1,
1222,
1222,
1212,
1,
1110,
2220,
1110,
2220,
2121,
2121,
44,
6000000000000000000000000000000000000000000000080000000000000000,
2121,
2121,
7,
8,
#SCROLL 0.5
#GOGOSTART
#MEASURE 8/4
100100201011,
200100112011,
100100201011,
2000000000000000100000005000000000000000000000000000000800000000,
100020001000200700000000,
00800112,
200100102010,
200100201020,
#MEASURE 4/4
1222,
#SCROLL 0.75
1222,
112,
212,
111011,
1121,
7,
08,
10101110,
10101110,
#SCROLL 1
5,
0000000000000000000000000000000800000000000000001000000000000000,
10111011,
5000000000000000000000000000000000000000000000000000000000000008,
,
7878,
7830,
4,
,
#GOGOEND
,
#SCROLL 0.5
#MEASURE 8/4
10111020,
10222010,
11101110,
3330,
#SCROLL 1
#MEASURE 4/4
10101110,
10201110,
10101110,
10201110,
11101110,
22202220,
33,
6008,
11101110,
22202220,
#SCROLL 3
6000000000000000000000000000000000000000000000000000000000000008,
#SCROLL 1
,
,
#SCROLL 2
3,
#SCROLL 1.33
7,
,
8,
,
,
,
#END
COURSE:Easy
LEVEL:5
BALLOON:4,6,7,2,2,2,10
SCOREINIT:590
SCOREDIFF:158
#START
#BARLINEOFF
,
#BARLINEON
#SCROLL 0.5
#MEASURE 8/4
1110,
2220,
11101000,
3330,
#SCROLL 1
#MEASURE 4/4
11,
1,
22,
2,
1110,
1,
5008,
3,
11,
11,
5,
8,
12,
12,
5008,
4,
11,
11,
5,
8,
12,
12,
1110,
3330,
12,
12,
1110,
1,
12,
12,
1110,
2,
1110,
22,
1110,
22,
12,
12,
44,
6008,
12,
12,
7,
8,
#SCROLL 0.5
#GOGOSTART
#MEASURE 8/4
100100200011,
100100100011,
100100200011,
10150008,
100020001000200700000000,
00800222,
200100102010,
200100201020,
#MEASURE 4/4
12,
#SCROLL 0.75
12,
112,
212,
100011,
1111,
7,
08,
10001110,
10001110,
#SCROLL 1
5,
0081,
10111000,
5,
8,
7878,
7830,
4,
,
#GOGOEND
,
#SCROLL 0.5
#MEASURE 8/4
1110,
2220,
11101000,
3330,
#SCROLL 1
#MEASURE 4/4
11,
1,
22,
2,
1110,
2220,
33,
6008,
1110,
2220,
#SCROLL 3
600000000000000000000008,
#SCROLL 1
,
,
#SCROLL 2
3,
#SCROLL 1.33
7,
,
8,
,
,
,
#END