tja
This commit is contained in:
535
tja/246.tja
Normal file
535
tja/246.tja
Normal file
@@ -0,0 +1,535 @@
|
||||
//TJADB Project
|
||||
TITLE:Ashita mo
|
||||
TITLEJA:明日も
|
||||
SUBTITLE:--Mush & Co./Docomo Student Discounts
|
||||
SUBTITLEJA:NTTドコモ「ドコモの学割」CMソング
|
||||
BPM:179
|
||||
WAVE:Ashita mo.ogg
|
||||
OFFSET:-4.150
|
||||
DEMOSTART:85.937
|
||||
|
||||
//shinuchi: 9310/6670/3310/2350
|
||||
//1 initial hidden barline ignored
|
||||
|
||||
COURSE:Oni
|
||||
LEVEL:2
|
||||
BALLOON:10,15,10
|
||||
SCOREINIT:560,2460
|
||||
SCOREDIFF:143
|
||||
|
||||
#START
|
||||
2010200011101110,
|
||||
|
||||
5,
|
||||
000000000000000008000000000000200000000000200000,
|
||||
02,
|
||||
22,
|
||||
|
||||
5,
|
||||
000008000000000000200000000000200000000000500000,
|
||||
000000000000000000000008000000000000200000000000,
|
||||
22020200, //9
|
||||
|
||||
10202201,
|
||||
02220200,
|
||||
10202201,
|
||||
01020220,
|
||||
|
||||
10150000,
|
||||
000000000000000008000000200000000000200000000000,
|
||||
500000000000000000000000000000000008000000000000,
|
||||
7,
|
||||
8, //18
|
||||
|
||||
1111,
|
||||
10002200,
|
||||
10210120,
|
||||
10210120,
|
||||
|
||||
10210220,
|
||||
10210220,
|
||||
10210120,
|
||||
10220120, //26
|
||||
|
||||
10210120,
|
||||
10210120,
|
||||
10210220,
|
||||
10210220,
|
||||
|
||||
10210120,
|
||||
10210120,
|
||||
10211021,
|
||||
500000000000000000000000000000000000000000000008,
|
||||
0000111011102000, //35
|
||||
|
||||
1111,
|
||||
10200121,
|
||||
10210120,
|
||||
10210120,
|
||||
|
||||
10210220,
|
||||
10210220,
|
||||
10210120,
|
||||
10220120, //43
|
||||
|
||||
10210120,
|
||||
10210121,
|
||||
10210220,
|
||||
10210220,
|
||||
|
||||
10210120,
|
||||
10210120,
|
||||
10211021,
|
||||
500000000000000000000000000000000000000000000008,
|
||||
0211, //52
|
||||
|
||||
20111210,
|
||||
20111210,
|
||||
10201125,
|
||||
000000000000000000000008000000000000200000000000,
|
||||
|
||||
10210120,
|
||||
10210120,
|
||||
10211027,
|
||||
0,
|
||||
8, //61
|
||||
|
||||
#GOGOSTART
|
||||
10221022,
|
||||
10221022,
|
||||
10211021,
|
||||
10220122,
|
||||
|
||||
10221022,
|
||||
10221022,
|
||||
10211021,
|
||||
10220122, //69
|
||||
|
||||
10201021,
|
||||
01210122,
|
||||
10201021,
|
||||
01210122,
|
||||
|
||||
10210222,
|
||||
10210222,
|
||||
10211027,
|
||||
00000800, //77
|
||||
|
||||
10221125,
|
||||
000000000000000000000008000000000000200000200000,
|
||||
10221125,
|
||||
000000000000000008000000100000100000000000200000,
|
||||
|
||||
10201121,
|
||||
01210122,
|
||||
10211025,
|
||||
000000000000000000000008000000000000200000200000, //85
|
||||
|
||||
10201021,
|
||||
01210122,
|
||||
10201021,
|
||||
01210122,
|
||||
|
||||
10210122,
|
||||
3344,
|
||||
3232,
|
||||
3304,
|
||||
|
||||
600000000000000000000000000000000000000000000008,
|
||||
#GOGOEND
|
||||
0,
|
||||
0, //96
|
||||
#END
|
||||
|
||||
|
||||
COURSE:Hard
|
||||
LEVEL:3
|
||||
BALLOON:17,17,10,12,8
|
||||
SCOREINIT:700,3600
|
||||
SCOREDIFF:183
|
||||
|
||||
#START
|
||||
0,
|
||||
|
||||
7,
|
||||
0,
|
||||
8,
|
||||
0,
|
||||
|
||||
7,
|
||||
0,
|
||||
8,
|
||||
0, //9
|
||||
|
||||
10202001,
|
||||
01110200,
|
||||
10202001,
|
||||
01020220,
|
||||
|
||||
10150000,
|
||||
000000000000000008000000000000000000000000000000,
|
||||
500000000000000000000000000000000008000000000000,
|
||||
7,
|
||||
8, //18
|
||||
|
||||
1111,
|
||||
10002200,
|
||||
10210010,
|
||||
10210010,
|
||||
|
||||
10210020,
|
||||
10210020,
|
||||
1212,
|
||||
1, //26
|
||||
|
||||
10221021,
|
||||
00010120,
|
||||
10210010,
|
||||
10210010,
|
||||
|
||||
10210020,
|
||||
10210020,
|
||||
1212,
|
||||
500000000000000000000000000000000000000000000008,
|
||||
0, //35
|
||||
|
||||
1111,
|
||||
10010120,
|
||||
10210010,
|
||||
10210010,
|
||||
|
||||
10210020,
|
||||
10210020,
|
||||
1212,
|
||||
1, //43
|
||||
|
||||
10221021,
|
||||
00010120,
|
||||
10210010,
|
||||
10210010,
|
||||
|
||||
10210020,
|
||||
10210020,
|
||||
1212,
|
||||
500000000000000000000000000000000000000000000008,
|
||||
0222, //52
|
||||
|
||||
10021002,
|
||||
1222,
|
||||
10201125,
|
||||
000000000000000000000008000000000000000000000000,
|
||||
|
||||
10201120,
|
||||
10201120,
|
||||
11201129,
|
||||
000000000000000009000000,
|
||||
8, //61
|
||||
|
||||
#GOGOSTART
|
||||
10021002,
|
||||
10021002,
|
||||
10012002,
|
||||
12,
|
||||
|
||||
10021002,
|
||||
10021002,
|
||||
10012002,
|
||||
10002011, //69
|
||||
|
||||
20101021,
|
||||
02000011,
|
||||
20101021,
|
||||
01000011,
|
||||
|
||||
20210001,
|
||||
2121,
|
||||
30033037,
|
||||
00000800, //77
|
||||
|
||||
20221025,
|
||||
000000000000000000000008000000000000000000000000,
|
||||
20221025,
|
||||
000000000000000000000008000000000000000000000000,
|
||||
|
||||
10201021,
|
||||
01200000,
|
||||
10201125,
|
||||
000000000000000000000008000000000000000000000000, //85
|
||||
|
||||
10201021,
|
||||
01200000,
|
||||
10201021,
|
||||
01200022,
|
||||
|
||||
10210020,
|
||||
3344,
|
||||
33,
|
||||
4400,
|
||||
|
||||
600000000000000000000000000000000000000000000008,
|
||||
#GOGOEND
|
||||
0,
|
||||
0, //96
|
||||
#END
|
||||
|
||||
|
||||
COURSE:Normal
|
||||
LEVEL:2
|
||||
BALLOON:14,14,7,8
|
||||
SCOREINIT:950,7440
|
||||
SCOREDIFF:350
|
||||
|
||||
#START
|
||||
0,
|
||||
|
||||
7,
|
||||
0,
|
||||
8,
|
||||
0,
|
||||
|
||||
7,
|
||||
0,
|
||||
8,
|
||||
0, //9
|
||||
|
||||
1,
|
||||
2,
|
||||
1,
|
||||
2,
|
||||
|
||||
1,
|
||||
0,
|
||||
500000000000000000000000000008000000000000000000,
|
||||
7,
|
||||
8, //18
|
||||
|
||||
1111,
|
||||
1,
|
||||
2,
|
||||
0,
|
||||
|
||||
12,
|
||||
1120,
|
||||
1120,
|
||||
1, //26
|
||||
|
||||
1111,
|
||||
0,
|
||||
2,
|
||||
0,
|
||||
|
||||
12,
|
||||
1120,
|
||||
1120,
|
||||
500000000000000000000000000000000000000000000008,
|
||||
0, //35
|
||||
|
||||
1111,
|
||||
1,
|
||||
2,
|
||||
0,
|
||||
|
||||
12,
|
||||
1120,
|
||||
1120,
|
||||
1, //43
|
||||
|
||||
1111,
|
||||
0,
|
||||
2,
|
||||
0,
|
||||
|
||||
12,
|
||||
1120,
|
||||
1120,
|
||||
500000000000000000000000000000000000000000000008,
|
||||
0, //52
|
||||
|
||||
11,
|
||||
1022,
|
||||
10002005,
|
||||
000000000000000000000008000000000000000000000000,
|
||||
|
||||
12,
|
||||
1120,
|
||||
10001009,
|
||||
000000000000000009000000,
|
||||
8, //61
|
||||
|
||||
#GOGOSTART
|
||||
11,
|
||||
11,
|
||||
12,
|
||||
1,
|
||||
|
||||
11,
|
||||
11,
|
||||
12,
|
||||
1, //69
|
||||
|
||||
1110,
|
||||
3,
|
||||
1110,
|
||||
3,
|
||||
|
||||
21,
|
||||
21,
|
||||
30003006,
|
||||
000000000000000000000000000008000000000000000000, //77
|
||||
|
||||
20202005,
|
||||
000000000000000000000008000000000000000000000000,
|
||||
20202005,
|
||||
000000000000000000000008000000000000000000000000,
|
||||
|
||||
1110,
|
||||
2,
|
||||
1110,
|
||||
2, //85
|
||||
|
||||
1120,
|
||||
12,
|
||||
1120,
|
||||
12,
|
||||
|
||||
3,
|
||||
3330,
|
||||
33,
|
||||
0,
|
||||
|
||||
600000000000000000000000000000000000000000000008,
|
||||
#GOGOEND
|
||||
0,
|
||||
0, //96
|
||||
#END
|
||||
|
||||
|
||||
COURSE:Easy
|
||||
LEVEL:1
|
||||
BALLOON:12,12,6,6
|
||||
SCOREINIT:880,10670
|
||||
SCOREDIFF:490
|
||||
|
||||
#START
|
||||
0,
|
||||
|
||||
7,
|
||||
0,
|
||||
8,
|
||||
0,
|
||||
|
||||
7,
|
||||
0,
|
||||
8,
|
||||
0, //9
|
||||
|
||||
1,
|
||||
1,
|
||||
1,
|
||||
1,
|
||||
|
||||
1,
|
||||
0,
|
||||
500000000000000000000000000008000000000000000000,
|
||||
7,
|
||||
8, //18
|
||||
|
||||
11,
|
||||
1,
|
||||
2,
|
||||
0,
|
||||
|
||||
11,
|
||||
1,
|
||||
11,
|
||||
1, //26
|
||||
|
||||
11,
|
||||
1,
|
||||
2,
|
||||
0,
|
||||
|
||||
1,
|
||||
2,
|
||||
12,
|
||||
500000000000000000000000000000000000000000000008,
|
||||
0, //35
|
||||
|
||||
11,
|
||||
1,
|
||||
2,
|
||||
0,
|
||||
|
||||
1,
|
||||
2,
|
||||
12,
|
||||
1, //43
|
||||
|
||||
11,
|
||||
1,
|
||||
2,
|
||||
0,
|
||||
|
||||
1,
|
||||
2,
|
||||
12,
|
||||
500000000000000000000000000000000000000000000008,
|
||||
0, //52
|
||||
|
||||
11,
|
||||
1,
|
||||
10002005,
|
||||
000000000000000000000008000000000000000000000000,
|
||||
|
||||
1,
|
||||
1,
|
||||
10001009,
|
||||
000000000000000009000000,
|
||||
8, //61
|
||||
|
||||
#GOGOSTART
|
||||
11,
|
||||
11,
|
||||
1,
|
||||
2,
|
||||
|
||||
11,
|
||||
11,
|
||||
1,
|
||||
2, //69
|
||||
|
||||
11,
|
||||
3,
|
||||
11,
|
||||
3,
|
||||
|
||||
2,
|
||||
2,
|
||||
33,
|
||||
3, //77
|
||||
|
||||
20002005,
|
||||
000000000000000000000008000000000000000000000000,
|
||||
20002005,
|
||||
000000000000000000000008000000000000000000000000,
|
||||
|
||||
11,
|
||||
1,
|
||||
11,
|
||||
1, //85
|
||||
|
||||
12,
|
||||
1,
|
||||
12,
|
||||
1,
|
||||
|
||||
3,
|
||||
33,
|
||||
33,
|
||||
0,
|
||||
|
||||
600000000000000000000000000000000000000000000008,
|
||||
#GOGOEND
|
||||
0,
|
||||
0, //96
|
||||
#END
|
||||
Reference in New Issue
Block a user