This commit is contained in:
2026-03-04 23:59:27 +09:00
parent 6e0312f5b4
commit 4b4e2b8c98
1128 changed files with 668765 additions and 0 deletions

834
tja/248.tja Normal file
View File

@@ -0,0 +1,834 @@
//TJADB Project
TITLE:LOVE Ikusa‼
TITLEJA:LOVE戦!!
SUBTITLE:--LV.4 & K Masera feat. Miyu
BPM:180
WAVE:LOVE Ikusa!!.ogg
OFFSET:-1.498
DEMOSTART:37.497
COURSE:Edit
LEVEL:9
BALLOON:16,8,12,12
#START
70000008,
300222100222100000400000,
#GOGOSTART
1111201011112010,
1111222212221222,
1111201011112010,
1022102211204022,
1111201011112010,
1111222212221222,
1111201011112010,
1122112212204000,
#GOGOEND
1010202010112022,
1010202011012010,
1011202210112020,
3000300030002220,
1010202010112022,
1010202011012020,
1011221010112210,
3040304011104000,
1110202210102022,
1210201202102012,
100111100111100200200100,
1222112030002000,
1110211011102110,
1111211011112222,
1121121112112112,
1121121112112222,
1003003070000080,
#GOGOSTART
1110210211102102,
1110203000302220,
1110210211102102,
1110203000302220,
1012021012102211,
1012021022102212,
1012101210121020,
1111222212104000,
1110220211102202,
1110203000302220,
1110220211102202,
1110203000302210,
1020112010221020,
1220102110201120,
1122112112212000,
300222100222100000300000,
1111221111212111,
1111221111212111,
1121212211212122,
1221221212212122,
1111201011112010,
1111222212221222,
1111201011112010,
1022102211204022,
1111201011112010,
1111222212221222,
1111201011112010,
1122112212204000,
#GOGOEND
100000100222200000200100,
200000100222200000200000,
100000100222200200000100,
000100100222200200200200,
100000100222200000200100,
200000100222200000200200,
100000100222200200200100,
000100100222200000200000,
100000100222200200100100,
200100100222200000200200,
100000100222200200100100,
000000100000100000202020200000200000200000200200,
100000100222200000100100,
200100100222200000200200,
70000817,
00008444,
#GOGOSTART
1110210211102102,
1110203000302220,
1110210211102102,
1110203000302220,
1012021012102211,
1012021022102212,
1012111210121120,
1111221221104000,
1110220211102202,
1110203000302220,
1110220211102202,
1110203000302210,
1020112210221020,
1220102111211220,
2112112112112210,
300222100222100000400000,
#GOGOEND
#SCROLL 2
3,
#SCROLL 1
,
,
,
,
,
#END
COURSE:Oni
LEVEL:8
BALLOON:8,16
SCOREINIT:350
SCOREDIFF:90
#START
500000000000000000000000000000000000000008000000,
3332,
#GOGOSTART
1110200011102000,
1010202012021020,
1110200011102010,
0011102011221000,
1110200011102000,
1010202012021020,
1110200011102010,
0011101110304000,
#GOGOEND
1010201020121020,
1010202010221020,
1010222010102220,
3332,
1010201020121020,
1010202010221020,
1022102010221020,
3332,
1010222010102220,
1020102011221010,
40304003,
4040304030001222,
1110200011102000,
1110202011102020,
1120112011201120,
1122201122201220,
3003003070000080,
#GOGOSTART
33403340,
11230400,
33403340,
11230401,
1022102210121010,
2210102210201111,
1022102010202050,
000008000000100000000000300000300000400000000000,
3030402210102022,
11230410,
3030402210102022,
11230410,
1020112010201121,
1020112010201121,
1021102110211000,
3432,
1110201111102011,
1122102011221020,
1211201211211021,
1221102112212120,
1110400011104000,
1010402012003020,
1110400011104010,
0011104010304000,
1110400011104000,
1010402012003020,
1110400011104010,
0010401110304000,
#GOGOEND
10102001,
0120,
10102001,
01102000,
10102001,
0120,
10102001,
01102000,
1000102220001010,
0010102220002020,
1000102220001010,
0010102220202020,
1000102220001010,
0010102220002020,
7,
00000800,
#GOGOSTART
3040302210201022,
11230400,
3040302210201022,
11230401,
1022102210121010,
2210102210201111,
1022102010202050,
000008000000100000000000300000300000400000000000,
3040302210201022,
11230410,
3040302210201022,
11230410,
1020112010201121,
1020112010202121,
2111211121212110,
3334,
#GOGOEND
#END
COURSE:Hard
LEVEL:7
BALLOON:35,35,35,16,16,16
SCOREINIT:420
SCOREDIFF:100
#START
500000000000000000000000000000000000000008000000,
3330,
#GOGOSTART
#SECTION
#BRANCHSTART p,75,90
#N
1110000011100000,
11201020,
1110000010102010,
01201020,
1110000011100000,
11201020,
1110000010102010,
01211040,
#E
1110000011100000,
1110000010102000,
1110000010102010,
01201120,
1110000011100000,
11201120,
1110000010102010,
01211340,
#M
1110200011102000,
11201120,
1110200011102010,
0010200011102000,
1110200011102000,
11201120,
1110200011102010,
0010201110304000,
#GOGOEND
#SECTION
#BRANCHSTART p,75,90
#N
10111220,
10111220,
11201120,
3330,
10111220,
10111220,
11201120,
3340,
#E
1000101010222000,
1000101010222000,
11201120,
3330,
1000101010222000,
1000101010222000,
11201120,
3340,
#M
1000101010222000,
1000101010222000,
11221122,
3330,
1000101010222000,
1000101010222000,
1010222010102220,
3340,
#SECTION
#BRANCHSTART p,75,90
#N
11201120,
10201120,
30303003,
44303000,
1010200011100000,
1010200011100000,
500000000000000000000000000000000000000008000000,
600000000000000000000000000000000000000008000000,
3003003030000000,
#E
11201120,
11201121,
30303003,
44303000,
1010200011100000,
1010200011100000,
500000000000000000000000000000000000000008000000,
600000000000000000000000000000000000000008000000,
3003003030000000,
#M
11201120,
11201121,
30303003,
4040300030001110,
1010200011102000,
1010200011102000,
500000000000000000000000000000000000000008000000,
600000000000000000000000000000000000000008000000,
3003003030000000,
#GOGOSTART
#SECTION
#BRANCHSTART p,75,90
#N
33304440,
10130400,
33304440,
10130400,
12201221,
01201220,
10201221,
01201000,
#E
33304440,
10130400,
33304440,
10130400,
1022200010202010,
0010200010222000,
10201221,
01201110,
#M
33304440,
11130400,
33304440,
11130400,
1022200010222010,
0010200010222010,
1000200010222010,
01201110,
#SECTION
#BRANCHSTART p,75,90
#N
33304440,
10130400,
33304440,
10340400,
1000111000001010,
1000111000001010,
500000000000000000000000000000000008000000000000,
3430,
#E
33304440,
10130400,
33304440,
10130400,
1000111010001110,
1000111010001110,
500000000000000000000000000000000008000000000000,
3430,
#M
33304440,
11130400,
33304440,
11130400,
1000111010001110,
1000111010001110,
500000000000000000000000000000000008000000000000,
3430,
#SECTION
#BRANCHSTART p,75,90
#N
11,
1111,
11101110,
11111111,
9,
,
,
8,
0404,
0403,
0404,
00400330,
#E
11101110,
1110100010101000,
1110101011101000,
1110101011101010,
9,
,
,
8,
0404,
0403,
0404,
00400330,
#M
11101110,
1110100011101000,
1110101011101010,
1110111011101110,
9,
,
,
8,
0404,
0403,
0404,
00400330,
#GOGOEND
#SECTION
#BRANCHSTART p,75,90
#N
10102001,
0120,
10102001,
01102000,
10102001,
0120,
10102001,
01102000,
#E
10102001,
0120,
10102001,
01102000,
10102001,
0120,
10102001,
01102000,
#M
10102001,
0120,
10102001,
01102000,
10102001,
0120,
10102001,
01102000,
#SECTION
#BRANCHSTART p,75,90
#N
10102011,
01102000,
10102011,
01102000,
10102011,
01102000,
7,
00000800,
#E
10102011,
01102000,
10102011,
01102000,
10102011,
01102000,
7,
00000800,
#M
10102011,
01122020,
10102011,
01122000,
10102011,
01102020,
7,
00000800,
#GOGOSTART
#SECTION
#BRANCHSTART p,75,90
#N
33304440,
10130400,
33304440,
10130400,
12201221,
01201220,
10201221,
01201000,
#E
33304440,
10130400,
33304440,
10130400,
1022200010202010,
0010200010222000,
10201221,
01201110,
#M
33304440,
11130400,
33304440,
11130400,
1022200010222010,
0010200010222010,
1000200010222010,
01201110,
#SECTION
#BRANCHSTART p,75,90
#N
33304440,
10130400,
33304440,
10130400,
1000111000001010,
1000111000001010,
500000000000000000000000000000000008000000000000,
3330,
#E
33304440,
10130400,
33304440,
10130400,
1000111010001110,
1000111010001110,
500000000000000000000000000000000008000000000000,
3330,
#M
33304440,
11130400,
33304440,
11130400,
1000111010001110,
1000111010001110,
500000000000000000000000000000000008000000000000,
3330,
#BRANCHEND
#GOGOEND
#END
COURSE:Normal
LEVEL:5
BALLOON:30,14
SCOREINIT:540
SCOREDIFF:120
#START
500000000000000000000000000008000000000000000000,
3330,
#GOGOSTART
10001110,
1212,
10001110,
1210,
10001110,
1212,
10001110,
1,//10
#GOGOEND
10111000,
10111000,
11102220,
3340,
10111000,
10111000,
11102220,
3340,
10101110,
10101110,
3330,
2220,
13,
13,
500000000000000000000000000000000000000008000000,
600000000000000000000000000000000000000000000008,
,//27
#GOGOSTART
33303330,
30030000,
33303330,
30030000,
10101110,
10101110,
5,
000000000008000000000000000000000000000000000000,
33304440,
30030000,
33304440,
30030000,
12,
12,
500000000000000000000000000000000008000000000000,
3330,
11,
22,
11,
22,
9,
,
0900,
8,
0404,
0403,
0404,
00400330,//55
#GOGOEND
1,
11,
1,
12,
1,
11,
1,
1,
12,
11,
1,
1,
12,
12,
7,
00000800,//71
#GOGOSTART
33303330,
30030000,
33303330,
30030000,
10101110,
10101110,
5,
000000000008000000000000000000000000000000000000,
33304440,
30030000,
33304440,
30030000,
12,
12,
500000000000000000000000000000000008000000000000,
3330,//87
#GOGOEND
,
,
,
,
,
#END
COURSE:Easy
LEVEL:3
SCOREINIT:460
SCOREDIFF:110
#START
500000000000000000000000000008000000000000000000,
3330,//2
#GOGOSTART
1011,
11,
2022,
22,
1011,
11,
2022,
2,//10
#GOGOEND
1110,
1110,
11,
3330,
1110,
1110,
11,
3330,
11,
1110,
3330,
2220,
11,
11,
500000000000000000000000000000000000000008000000,
600000000000000000000000000000000000000000000008,
,//27
#GOGOSTART
33,
30030000,
33,
30030000,
1111,
11,
5,
000000000008000000000000000000000000000000000000,
33,
30030000,
33,
30030000,
12,
12,
500000000000000000000000000000000008000000000000,
3330,
11,
22,
11,
22,
9,
,
0900,
8,
0404,
0400,
0404,
0400,//55
#GOGOEND
1,
11,
1,
11,
1,
11,
1,
1,
11,
11,
1,
1,
11,
11,
7,
00000800,//71
#GOGOSTART
33,
30030000,
33,
30030000,
1111,
11,
5,
000000000008000000000000000000000000000000000000,
33,
30030000,
33,
30030000,
12,
12,
500000000000000000000000000000000008000000000000,
3330,//87
#GOGOEND
,
,
,
,
,
#END