This commit is contained in:
2026-03-04 23:59:27 +09:00
parent 6e0312f5b4
commit 4b4e2b8c98
1128 changed files with 668765 additions and 0 deletions

517
tja/253.tja Normal file
View File

@@ -0,0 +1,517 @@
//TJADB Project
TITLE:Luka Luka★Night Fever
TITLEJA:ルカルカ★ナイトフィーバー
SUBTITLE:--samfree feat. Megurine Luka
SUBTITLEJA:samfree feat.巡音ルカ
BPM:160
WAVE:Luka Luka Night Fever.ogg
OFFSET:-1.724
DEMOSTART:49.724
//shinuchi: 5720/3940/2350/1950/1490
COURSE:Edit
LEVEL:9
BALLOON:2,2
SCOREINIT:490,1570
SCOREDIFF:128
//WiiU3 score: 500/125
#START
#BARLINEOFF
#MEASURE 1/4
#SCROLL 3
4,
#BARLINEON
#MEASURE 4/4
#SCROLL 1
#GOGOSTART
100000200100200000100200100100100000200000101010,
1221221212212210,
1021201211102022,
100000100100200000101010100000200000100000100100,
100000200100200000100200100100100000200000101010,
1221221212212210,
1021201211102022,
100000200100200000101010100000000000100000000000, //9
#GOGOEND
1021201212112020,
1011211212112210,
1021201212112020,
1011211212012022,
1021201212112020,
1011211212112210,
1010202210102022,
100200100100200100101010100000200000100000200200, //17
1022022010112110,
1022022210112110,
1022022010112110,
1022022210112110,
1022022010112110,
1022022210112110,
1022102210221022,
100200100100200100101010100000000000100000000000, //25
1202102212021022,
1202102212021011,
1010
#SCROLL 3
4000
#SCROLL 1
1110
#SCROLL 3
4000,
#SCROLL 1
1110
#SCROLL 3
400040004000, //29
#SCROLL 1
1010201202102211,
000200100000200000100200000200100100200100101010,
1010401110104010,
001111111000
#SCROLL 3
4000, //33
#SCROLL 1
#GOGOSTART
1000400010004011,
1010211202112110,
22782278,
1010211202112210,
1010202210102022,
1010201012112110,
1010202210102022,
1211211030003000, //41
1414,
1010211202112110,
2020101120201011,
1010211202112210,
1010202210102022,
1010201012112110,
11212113,
034430
#SCROLL 3
40, //49
#SCROLL 1
100000200100200000100200100100100000200000101010,
1221221212212210,
1021201211102022,
100000100100200000101010100000200000100000100100,
100000200100200000100200100100100000200000101010,
1221221212212210,
1021201211102022,
100000200100200000101010100000000000100000000000, //57
#GOGOEND
200000000000200000202020200100101010200000300000,
000000300000400000400000300000000000
#SCROLL 5
060000000000,
#BARLINEOFF
000000000000000000000000000000000000000000000008,
0,
0,
0, //63
#END
COURSE:Oni
LEVEL:8
BALLOON:
SCOREINIT:610,2060
SCOREDIFF:168
#START
#BARLINEOFF
#MEASURE 1/4
4,
#BARLINEON
#MEASURE 4/4
#GOGOSTART
1020102210001000,
1222102212221020,
1020102210001000,
100000200200100000101010100000000000100000000000,
1020102210001000,
1222102212221020,
1020102210001000,
100000200200100000101010100000000000100000000000, //9
#GOGOEND
1020100010221020,
12101010,
1020100010221020,
1020102212201022,
1020100010221020,
1020100010001022,
1020100010201022,
100200200200100000101010100000000000100000000000, //17
1020100010221020,
1020102210221220,
1020100010221020,
1022122010001022,
1020100010221020,
1022122010001020,
1022122010001022,
100200200000100000101010100000000000100000200000, //25
12121012,
1022102210001011,
11401140,
11404040,
3000100010001022,
1000100010221220,
1000102210000030,
04444030, //33
#GOGOSTART
1414,
100000200000100000200200500000000008000000000000,
1022100010221000,
1022102010201220,
1022102010221220,
1020100010221111,
1022102010221020,
100000200200100200200000100000000000100000101010, //41
1414,
100000200000100000200200500000000008000000000000,
1022100010221000,
1022102010221220,
1020102210201022,
1020100010221111,
1022102010222030,
03333040, //49
1020102210001000,
1222102212221020,
1020102210001000,
100000200200100000101010100000000000100000000000,
1020102210001000,
1222102212221020,
1020102210001000,
100000200200100000101010100000000000100000000000, //57
#GOGOEND
1000211121112030,
04444030,
#BARLINEOFF
0,
0,
0,
0, //63
#END
COURSE:Hard
LEVEL:7
BALLOON:
SCOREINIT:600,2530
SCOREDIFF:170
#START
#BARLINEOFF
#MEASURE 1/4
4,
#BARLINEON
#MEASURE 4/4
#GOGOSTART
1011101010101000,
1011101010111010,
1011101010101000,
1011101040004000,
1011101010101000,
1011101010111010,
1011101010101000,
1011101040004000, //9
#GOGOEND
12201202,
1020200011102000,
12201202,
1020200011102000,
12201202,
1020200010222020,
1000200011102020,
12203030, //17
12201202,
1020200011102000,
12201202,
1020200011102000,
12201202,
1020200011102020,
1000200010222020,
1020200011101000, //25
10201120,
10201122,
12201220,
1022202010222020,
10201022,
10201022,
1011102010111030,
03333000, //33
#GOGOSTART
1212,
100100100000200000000000500000000008000000000000,
1110200011102000,
1010222010102000,
11201202,
1010200011102000,
1000200010002220,
12023030, //41
1212,
100100100000200000000000500000000008000000000000,
1110200011102000,
1010222010002020,
11201202,
1010200011102000,
1011101010111030,
03333040, //49
1011101010101000,
1011101010111010,
1011101010101000,
1011101040004000,
1011101010101000,
1011101010111010,
1011101010101000,
1011101040004000, //57
#GOGOEND
30000003,
03333000,
#BARLINEOFF
0,
0,
0,
0, //63
#END
COURSE:Normal
LEVEL:6
BALLOON:
SCOREINIT:780,4360
SCOREDIFF:255
#START
#BARLINEOFF
#MEASURE 1/4
0,
#BARLINEON
#MEASURE 4/4
#GOGOSTART
11,
11101010,
11,
11104040,
11,
11101010,
11,
11104040, //9
#GOGOEND
01101101,
11101000,
02202202,
02202000,
01101101,
01101022,
20202022,
02203030, //17
01101101,
11101000,
02202202,
22202000,
01101101,
01101022,
20202022,
02200011, //25
10101022,
20202011,
01101110,
11101111,
00101011,
00101011,
10022002,
02222000, //33
#GOGOSTART
1212,
11101000,
1212,
500000000000000000000000000000000008000000000000,
01101101,
11101000,
10101011,
01004040, //41
1212,
11101000,
1212,
500000000000000000000000000000000008000000000000,
01101101,
01101000,
10101033,
03333000, //49
11,
11101010,
11,
11104040,
11,
11101010,
11,
1044, //57
#GOGOEND
30000003,
03333000,
#BARLINEOFF
0,
0,
0,
0, //63
#END
COURSE:Easy
LEVEL:3
BALLOON:
SCOREINIT:580,7230
SCOREDIFF:250
#START
#BARLINEOFF
#MEASURE 1/4
0,
#BARLINEON
#MEASURE 4/4
#GOGOSTART
11,
1011,
11,
1044,
11,
1011,
11,
1044, //9
#GOGOEND
11,
1110,
11,
2220,
11,
1110,
11,
1033, //17
11,
1110,
11,
2220,
11,
1110,
11,
1033, //25
0202,
0202,
0303,
0333,
3022,
1022,
10001005,
000000000000000000000008000000000000000000000000, //33
#GOGOSTART
1212,
500000000000000000000000000008000000000000000000,
0404,
3033,
11,
1110,
11,
1044, //41
1212,
500000000000000000000000000008000000000000000000,
0404,
3033,
11,
1110,
10001005,
000000000000000000000008000000000000000000000000, //49
11,
1011,
11,
1044,
11,
1011,
11,
1044, //57
#GOGOEND
30000003,
03333000,
#BARLINEOFF
0,
0,
0,
0, //63
#END