tja
This commit is contained in:
444
tja/259.tja
Normal file
444
tja/259.tja
Normal file
@@ -0,0 +1,444 @@
|
||||
//TJADB Project
|
||||
TITLE:The Magician’s Dream
|
||||
TITLEJA:The Magician's Dream
|
||||
SUBTITLE:--Tooru Kawaino
|
||||
BPM:191
|
||||
WAVE:The Magicians Dream.ogg
|
||||
OFFSET:-1.877
|
||||
DEMOSTART:17.577
|
||||
|
||||
COURSE:Oni
|
||||
LEVEL:8
|
||||
BALLOON:6,6
|
||||
SCOREINIT:430
|
||||
SCOREDIFF:103
|
||||
|
||||
|
||||
#START
|
||||
|
||||
|
||||
30000030,
|
||||
2020202000202022,
|
||||
22220222,
|
||||
2000202000200011,
|
||||
#MEASURE 5/4
|
||||
1120112211,
|
||||
#MEASURE 4/4
|
||||
10210101,
|
||||
01201120,
|
||||
01210101,
|
||||
11201200,
|
||||
10210101,
|
||||
01201103,
|
||||
04040300,
|
||||
00112211,
|
||||
10210101,
|
||||
01201120,
|
||||
01210101,
|
||||
01201120,
|
||||
11210101,
|
||||
01201123,
|
||||
04040304,
|
||||
04070008,
|
||||
#GOGOSTART
|
||||
2011102011102011,
|
||||
1020111020112010,
|
||||
2011102011102011,
|
||||
1020111020122010,
|
||||
2011102011102011,
|
||||
1020111020112220,
|
||||
0030111020111020,
|
||||
1110201110201110,
|
||||
2211102211102211,
|
||||
1022111022111220,
|
||||
2211102211102211,
|
||||
1022111022111110,
|
||||
2211102211102211,
|
||||
1022111022111220,
|
||||
10122121,
|
||||
0020201000200021,
|
||||
11110223,
|
||||
0010101022211111,
|
||||
#GOGOEND
|
||||
#MEASURE 5/4
|
||||
1021002012,
|
||||
1101002121,
|
||||
1102102120,
|
||||
20101020101020102022,
|
||||
20101020101020102022,
|
||||
20101020101020102022,
|
||||
20101020101020102022,
|
||||
20101020101022112211,
|
||||
20111020111020111110,
|
||||
20111020111020111110,
|
||||
20112020211020112110,
|
||||
20112020211020112110,
|
||||
20111020111020112110,
|
||||
20111020111020111220,
|
||||
#MEASURE 4/4
|
||||
1000000020001000
|
||||
1000100010001000
|
||||
1000200200100100,
|
||||
12230030,
|
||||
01001002,
|
||||
01002001,
|
||||
0020111000100022,
|
||||
11400000,
|
||||
2211211111221030,
|
||||
#MEASURE 5/4
|
||||
0211200100,
|
||||
#MEASURE 4/4
|
||||
1110201000100010,
|
||||
11201200,
|
||||
10210101,
|
||||
01201103,
|
||||
04040300,
|
||||
00112211,
|
||||
10210101,
|
||||
01201120,
|
||||
01210101,
|
||||
01201120,
|
||||
11210101,
|
||||
01201123,
|
||||
04040304,
|
||||
04070008,
|
||||
#GOGOSTART
|
||||
2011102011102011,
|
||||
1020111020112010,
|
||||
2011102011102011,
|
||||
1020111020122010,
|
||||
2011102011102011,
|
||||
1020111020221110,
|
||||
0030111020111020,
|
||||
1110201030303030,
|
||||
2211102211102211,
|
||||
1022111022111220,
|
||||
2211202211202211,
|
||||
2022112022111221,
|
||||
#GOGOEND
|
||||
1,
|
||||
|
||||
|
||||
#END
|
||||
|
||||
|
||||
COURSE:Hard
|
||||
LEVEL:7
|
||||
BALLOON:6,4,6
|
||||
|
||||
#START
|
||||
,
|
||||
20220200,
|
||||
20220200,
|
||||
20220200,
|
||||
#MEASURE 5/4
|
||||
1130000000,
|
||||
#MEASURE 4/4
|
||||
10210101,
|
||||
01201020,
|
||||
10210101,
|
||||
01201120,
|
||||
10210101,
|
||||
01201021,
|
||||
01020500,
|
||||
08000000,
|
||||
10210101,
|
||||
01201020,
|
||||
10210101,
|
||||
01201120,
|
||||
10210101,
|
||||
01201021,
|
||||
01020201,
|
||||
07000008,
|
||||
#GOGOSTART
|
||||
1110002220001110,
|
||||
0022200011100000,
|
||||
1110002220001110,
|
||||
0022200011100000,
|
||||
1110002220001110,
|
||||
0022200011101010,
|
||||
0011100022200011,
|
||||
1000222000111000,
|
||||
1110001110001110,
|
||||
0011100050000080,
|
||||
1110001110001110,
|
||||
0011100050000080,
|
||||
1110001110001110,
|
||||
0011100050000000,
|
||||
80122121,
|
||||
01270008,
|
||||
11120221,
|
||||
01250008,
|
||||
#GOGOEND
|
||||
#MEASURE 5/4
|
||||
1001001010,
|
||||
1001002110,
|
||||
1001001010,
|
||||
1001001021,
|
||||
1001001010,
|
||||
1001001021,
|
||||
1101101101,
|
||||
1011011011,
|
||||
1021021010,
|
||||
1021021010,
|
||||
1021021010,
|
||||
1021021010,
|
||||
1121001120,
|
||||
1121001120,
|
||||
#MEASURE 4/4
|
||||
1500,
|
||||
8,
|
||||
02002002,
|
||||
02002002,
|
||||
02002002,
|
||||
02112021,
|
||||
5008,
|
||||
#MEASURE 5/4
|
||||
0000000100,
|
||||
#MEASURE 4/4
|
||||
10210101,
|
||||
01201120,
|
||||
10210101,
|
||||
01201121,
|
||||
01020500,
|
||||
08000000,
|
||||
10210101,
|
||||
01201120,
|
||||
10210101,
|
||||
01201120,
|
||||
10210101,
|
||||
01201121,
|
||||
01020201,
|
||||
07000008,
|
||||
#GOGOSTART
|
||||
1110002220001110,
|
||||
0022200011101000,
|
||||
1110002220001110,
|
||||
0022200011101000,
|
||||
1110002220001110,
|
||||
0022200011101022,
|
||||
2011100022200011,
|
||||
1000222000111000,
|
||||
1110102220201110,
|
||||
1022202011102220,
|
||||
1110102220201110,
|
||||
1022202011101110,
|
||||
#GOGOEND
|
||||
3,
|
||||
0,
|
||||
0,
|
||||
#END
|
||||
|
||||
COURSE:Normal
|
||||
LEVEL:6
|
||||
BALLOON:14,14,5,10,12,14,18,5,7
|
||||
|
||||
#START
|
||||
,
|
||||
20200200,
|
||||
20200200,
|
||||
20200200,
|
||||
#MEASURE 5/4
|
||||
33001,
|
||||
#MEASURE 4/4
|
||||
7,
|
||||
00000800,
|
||||
10010010,
|
||||
10010010,
|
||||
10010010,
|
||||
11001000,
|
||||
50000008,
|
||||
0001,
|
||||
7,
|
||||
00000800,
|
||||
10010010,
|
||||
10010010,
|
||||
10010010,
|
||||
11001000,
|
||||
50000800,
|
||||
70000800,
|
||||
#GOGOSTART
|
||||
11011011,
|
||||
01101000,
|
||||
22022022,
|
||||
02202000,
|
||||
11011011,
|
||||
01101000,
|
||||
03003003,
|
||||
00300300,
|
||||
7,
|
||||
0008,
|
||||
7,
|
||||
0008,
|
||||
7,
|
||||
0008,
|
||||
30000011,
|
||||
,
|
||||
10110030,
|
||||
60000800,
|
||||
#GOGOEND
|
||||
#MEASURE 5/4
|
||||
1001001010,
|
||||
1001001000,
|
||||
1001001010,
|
||||
1001001000,
|
||||
1001001010,
|
||||
1001001000,
|
||||
1011011000,
|
||||
1011011000,
|
||||
1011011000,
|
||||
1011011000,
|
||||
1011022000,
|
||||
1011022000,
|
||||
1022022000,
|
||||
1022022000,
|
||||
#MEASURE 4/4
|
||||
9,
|
||||
,
|
||||
8,
|
||||
,
|
||||
02002002,
|
||||
02000000,
|
||||
5000000000000800,
|
||||
#MEASURE 5/4
|
||||
,
|
||||
#MEASURE 4/4
|
||||
10010010,
|
||||
10010010,
|
||||
10010010,
|
||||
11001000,
|
||||
50000008,
|
||||
,
|
||||
10010010,
|
||||
10010010,
|
||||
10010010,
|
||||
10010010,
|
||||
10010010,
|
||||
11001000,
|
||||
5008,
|
||||
7008,
|
||||
#GOGOSTART
|
||||
11011011,
|
||||
01101000,
|
||||
22022022,
|
||||
02202000,
|
||||
11011011,
|
||||
01101000,
|
||||
03003003,
|
||||
00300300,
|
||||
11022011,
|
||||
02201010,
|
||||
11022011,
|
||||
7,
|
||||
#GOGOEND
|
||||
8,
|
||||
0,
|
||||
0,
|
||||
#END
|
||||
|
||||
COURSE:Easy
|
||||
LEVEL:4
|
||||
BALLOON:12,12,4,8,10,12,15,7
|
||||
|
||||
#START
|
||||
,
|
||||
1,
|
||||
1,
|
||||
1,
|
||||
#MEASURE 5/4
|
||||
33001,
|
||||
#MEASURE 4/4
|
||||
7,
|
||||
00000800,
|
||||
1101,
|
||||
1101,
|
||||
1101,
|
||||
11,
|
||||
50000008,
|
||||
0001,
|
||||
7,
|
||||
00000800,
|
||||
1101,
|
||||
1101,
|
||||
1101,
|
||||
11,
|
||||
50000800,
|
||||
70000800,
|
||||
#GOGOSTART
|
||||
3111,
|
||||
1110,
|
||||
3111,
|
||||
1110,
|
||||
3111,
|
||||
1110,
|
||||
03000101,
|
||||
,
|
||||
7,
|
||||
0008,
|
||||
7,
|
||||
0008,
|
||||
7,
|
||||
0008,
|
||||
3,
|
||||
3,
|
||||
3303,
|
||||
60000800,
|
||||
#GOGOEND
|
||||
#MEASURE 5/4
|
||||
1000001000,
|
||||
10001,
|
||||
1000001000,
|
||||
10001,
|
||||
1000001000,
|
||||
10001,
|
||||
1,
|
||||
1,
|
||||
11111,
|
||||
1,
|
||||
11111,
|
||||
1,
|
||||
11111,
|
||||
10111,
|
||||
#MEASURE 4/4
|
||||
9,
|
||||
,
|
||||
8,
|
||||
,
|
||||
22,
|
||||
2,
|
||||
5000000000000800,
|
||||
#MEASURE 5/4
|
||||
,
|
||||
#MEASURE 4/4
|
||||
1101,
|
||||
1101,
|
||||
1101,
|
||||
11,
|
||||
50000008,
|
||||
,
|
||||
1101,
|
||||
1101,
|
||||
1101,
|
||||
1101,
|
||||
1101,
|
||||
11,
|
||||
5008,
|
||||
7008,
|
||||
#GOGOSTART
|
||||
3111,
|
||||
1110,
|
||||
3111,
|
||||
1110,
|
||||
3111,
|
||||
1110,
|
||||
03000101,
|
||||
,
|
||||
30010010,
|
||||
01001000,
|
||||
30010010,
|
||||
7,
|
||||
#GOGOEND
|
||||
8,
|
||||
0,
|
||||
0,
|
||||
#END
|
||||
Reference in New Issue
Block a user