tja
This commit is contained in:
338
tja/26.tja
Normal file
338
tja/26.tja
Normal file
@@ -0,0 +1,338 @@
|
||||
//TJADB Project
|
||||
TITLE:Koi Suru Fortune Cookie
|
||||
TITLEJA:恋するフォーチュンクッキー
|
||||
SUBTITLE:--AKB48
|
||||
BPM:122
|
||||
WAVE:Koi Suru Fortune Cookie.ogg
|
||||
OFFSET:-2.305
|
||||
DEMOSTART:80.991
|
||||
|
||||
COURSE:Oni
|
||||
LEVEL:7
|
||||
BALLOON:20,17,19,28
|
||||
SCOREINIT:480
|
||||
SCOREDIFF:120
|
||||
|
||||
|
||||
#START
|
||||
|
||||
|
||||
3003003000221200,
|
||||
3003004000112100,
|
||||
3003003000221200,
|
||||
3003004000111111,
|
||||
1020112010202011,
|
||||
1020112010201022,
|
||||
1020112010202011,
|
||||
1020112010201022,
|
||||
1020112010102020,
|
||||
1011200010404060,
|
||||
000000000000000000000000000000000008000000700000,
|
||||
0008,
|
||||
1011102010201010,
|
||||
2011202010202010,
|
||||
2011102010201010,
|
||||
2011202010202010,
|
||||
2011101020111010,
|
||||
2011101010404011,
|
||||
12011223,
|
||||
0330,
|
||||
1011102010201010,
|
||||
2011202010202010,
|
||||
2011102010201010,
|
||||
2011202010202010,
|
||||
2011101020111010,
|
||||
2011101010404011,
|
||||
12011203,
|
||||
0330,
|
||||
1011201010112010,
|
||||
0011201010112020,
|
||||
1011201010112010,
|
||||
0011201111112222,
|
||||
1011201010112010,
|
||||
0011201010112020,
|
||||
1011201010112010,
|
||||
0011201012102070,
|
||||
00000807,
|
||||
0008,
|
||||
2102102102103030,
|
||||
,
|
||||
|
||||
#GOGOSTART
|
||||
1010201010112210,
|
||||
0010202010221022,
|
||||
1010202010112210,
|
||||
0010202010221022,
|
||||
1010222050000000,
|
||||
000008000000200200200000500000000000000000000008,
|
||||
00112121,
|
||||
1120112011221111,
|
||||
1010201010112210,
|
||||
0010202010221022,
|
||||
1010202010112210,
|
||||
0010202010221022,
|
||||
1010222050000000,
|
||||
000008000000200200200000700000000000000000000000,
|
||||
0008,
|
||||
1010202011221010,
|
||||
1010202011222010,
|
||||
1010202011221010,
|
||||
1010202011112210,
|
||||
1111202011112020,
|
||||
1111222211112050,
|
||||
000000000000000000000000000000000008000000000000,
|
||||
1102201102201010,
|
||||
2201102201102020,
|
||||
1202101202221122,
|
||||
1021021000100022,
|
||||
100000000222100000300000,
|
||||
|
||||
#GOGOEND
|
||||
|
||||
|
||||
#END
|
||||
|
||||
|
||||
COURSE:Hard
|
||||
LEVEL:6
|
||||
BALLOON:18,14,16,20
|
||||
SCOREINIT:520
|
||||
SCOREDIFF:133
|
||||
|
||||
|
||||
#START
|
||||
|
||||
|
||||
3003003000111100,
|
||||
3003004000222200,
|
||||
3003003000111100,
|
||||
3003004000000000,
|
||||
12121021,
|
||||
02121221,
|
||||
02121021,
|
||||
02121221,
|
||||
02121122,
|
||||
11201225,
|
||||
000000000000000000000000000000000008000000700000,
|
||||
0008,
|
||||
1011102010201010,
|
||||
2011102010000010,
|
||||
2011102010201010,
|
||||
2011102010000010,
|
||||
2011101020111010,
|
||||
2011101010202011,
|
||||
12011203,
|
||||
0330,
|
||||
1011102010201010,
|
||||
2011102010000010,
|
||||
2011102010201010,
|
||||
2011102010000010,
|
||||
2011101020111010,
|
||||
2011101010202011,
|
||||
12011203,
|
||||
0330,
|
||||
1010201010111010,
|
||||
0010201010222000,
|
||||
1010201010111010,
|
||||
0010201011102220,
|
||||
1010201010111010,
|
||||
0010201010222000,
|
||||
1010201010111010,
|
||||
0010201011102070,
|
||||
00000807,
|
||||
0008,
|
||||
2202202202203030,
|
||||
,
|
||||
|
||||
#GOGOSTART
|
||||
11221121,
|
||||
01223030,
|
||||
11221121,
|
||||
0010202010111011,
|
||||
11205000,
|
||||
000000000008000000000000500000000000000000000008,
|
||||
00111121,
|
||||
1110111011101110,
|
||||
11221121,
|
||||
01223030,
|
||||
11221121,
|
||||
0010202010111011,
|
||||
1010222050000000,
|
||||
000008000000200200200000700000000000000000000000,
|
||||
0008,
|
||||
1010202010222010,
|
||||
11221201,
|
||||
1010202010222010,
|
||||
11221201,
|
||||
1110202010202010,
|
||||
1110222010202050,
|
||||
000000000000000000000000000000000008000000000000,
|
||||
1101101101101010,
|
||||
2202202202202020,
|
||||
1102201102201010,
|
||||
1001001000200011,
|
||||
1043,
|
||||
|
||||
#GOGOEND
|
||||
|
||||
|
||||
#END
|
||||
|
||||
|
||||
COURSE:Normal
|
||||
LEVEL:4
|
||||
BALLOON:12,11,11,14,16,11
|
||||
|
||||
#START
|
||||
3003003000000000,
|
||||
3003003000000000,
|
||||
3003003000000000,
|
||||
3003003000000000,
|
||||
10101002,
|
||||
00202001,
|
||||
00101002,
|
||||
00202001,
|
||||
0122,
|
||||
1150,
|
||||
000000000000000000000000000000000008000000700000,
|
||||
0008,
|
||||
1112,
|
||||
10101220,
|
||||
1112,
|
||||
10101220,
|
||||
10111000,
|
||||
10111000,
|
||||
30004003,
|
||||
0330,
|
||||
1112,
|
||||
10101220,
|
||||
1112,
|
||||
10101220,
|
||||
10111000,
|
||||
10111000,
|
||||
30004003,
|
||||
0330,
|
||||
10101011,
|
||||
01104040,
|
||||
10101011,
|
||||
01102000,
|
||||
10101011,
|
||||
01104040,
|
||||
10101011,
|
||||
01102007,
|
||||
00000807,
|
||||
00000800,
|
||||
9009,
|
||||
8,//40
|
||||
|
||||
#GOGOSTART
|
||||
00111105,
|
||||
000000000008000000000000300000000000300000000000,
|
||||
00222205,
|
||||
000000000008000000000000300000000000300000000000,
|
||||
35,
|
||||
000000000008000000000000500000000000000000000008,
|
||||
00111106,
|
||||
000000000000000000000000000000000000000000000008,
|
||||
00111105,
|
||||
000000000008000000000000300000000000300000000000,
|
||||
00222205,
|
||||
000000000008000000000000300000000000300000000000,
|
||||
35,
|
||||
000000000008000000000000700000000000000000000000,
|
||||
0008,
|
||||
10101110,
|
||||
20202220,
|
||||
11101110,
|
||||
22202220,
|
||||
11111110,
|
||||
22222225,
|
||||
000000000000000000000000000000000008000000000000,
|
||||
1001001000000000,
|
||||
2002002000000000,
|
||||
7008,
|
||||
600000000000000000000000000000000008000000000000,
|
||||
1043,//67
|
||||
|
||||
#GOGOEND
|
||||
,
|
||||
#END
|
||||
|
||||
COURSE:Easy
|
||||
LEVEL:3
|
||||
BALLOON:7,6,6,9,11,6,6,6
|
||||
|
||||
#START
|
||||
0003,
|
||||
0003,
|
||||
0003,
|
||||
,
|
||||
10101002,
|
||||
00202001,
|
||||
00101002,
|
||||
00202001,
|
||||
0111,
|
||||
1150,
|
||||
000000000000000000000000000000000008000000700000,
|
||||
0008,
|
||||
11,
|
||||
1110,
|
||||
11,
|
||||
1110,
|
||||
1110,
|
||||
1110,
|
||||
30004006,
|
||||
000000000000000000000008000000000000000000000000,
|
||||
11,
|
||||
1110,
|
||||
11,
|
||||
1110,
|
||||
1110,
|
||||
1110,
|
||||
30004006,
|
||||
000000000000000000000008000000000000000000000000,
|
||||
12,
|
||||
1110,
|
||||
12,
|
||||
2220,
|
||||
12,
|
||||
1110,
|
||||
12,
|
||||
20202007,
|
||||
00000807,
|
||||
00000800,
|
||||
9009,
|
||||
8,//40
|
||||
|
||||
#GOGOSTART
|
||||
00101005,
|
||||
000000000008000000000000300000000000300000000000,
|
||||
00101005,
|
||||
000000000008000000000000400000000000400000000000,
|
||||
45,
|
||||
000008000000000000000000500000000000000000000008,
|
||||
00101006,
|
||||
000000000000000000000000000000000000000000000008,
|
||||
00101005,
|
||||
000000000008000000000000300000000000300000000000,
|
||||
00101005,
|
||||
000000000008000000000000400000000000400000000000,
|
||||
45,
|
||||
000000000008000000000000700000000000000000000000,
|
||||
0008,
|
||||
11,
|
||||
22,
|
||||
1110,
|
||||
2220,
|
||||
1111,
|
||||
20202025,
|
||||
000000000000000000000000000000000008000000000000,
|
||||
7008,
|
||||
7008,
|
||||
7008,
|
||||
600000000000000000000000000008000000000000000000,
|
||||
1043,//67
|
||||
|
||||
#GOGOEND
|
||||
,
|
||||
#END
|
||||
Reference in New Issue
Block a user