tja
This commit is contained in:
842
tja/266.tja
Normal file
842
tja/266.tja
Normal file
@@ -0,0 +1,842 @@
|
||||
//TJADB Project
|
||||
TITLE:Dodon ga Do~n
|
||||
TITLEJA:ドドンガド~ン
|
||||
SUBTITLE:--Shinji Hosoe (Sampling Masters)
|
||||
BPM:200
|
||||
WAVE:Dodon ga Don.ogg
|
||||
OFFSET:-1.404
|
||||
DEMOSTART:30.197
|
||||
|
||||
COURSE:Edit
|
||||
LEVEL:10
|
||||
SCOREINIT:320
|
||||
SCOREDIFF:90
|
||||
|
||||
|
||||
#START
|
||||
|
||||
|
||||
3000300020200020,
|
||||
2020002020202022,
|
||||
1000201020100020,
|
||||
0020002011102000,
|
||||
3000300020200020,
|
||||
2020002020202022,
|
||||
1000201020100020,
|
||||
1020102011102000,
|
||||
1022102010221020,
|
||||
1022111010221020,//10
|
||||
|
||||
#GOGOSTART
|
||||
1000100010222020,
|
||||
3030004030001111,//12
|
||||
|
||||
#GOGOEND
|
||||
1022102010221020,
|
||||
1022111010221020,//14
|
||||
|
||||
#GOGOSTART
|
||||
1000100010222020,
|
||||
3000203000203000,//16
|
||||
|
||||
#GOGOEND
|
||||
1022102010221020,
|
||||
1022102010221020,
|
||||
1010221010201022,
|
||||
1010221010221020,
|
||||
1120102011201020,
|
||||
1120102011201020,
|
||||
1010112010112010,//23
|
||||
|
||||
#GOGOSTART
|
||||
3030004030221020,//24
|
||||
|
||||
#GOGOEND
|
||||
1022102010221020,
|
||||
1022102010221020,
|
||||
1010221010201022,
|
||||
1010221010221020,
|
||||
1120102011201020,
|
||||
1120102011201020,
|
||||
1010112010112010,//31
|
||||
|
||||
#GOGOSTART
|
||||
3030004030221020,//32
|
||||
|
||||
#GOGOEND
|
||||
1011101110100010,
|
||||
1110101110101110,
|
||||
1111111120100010,
|
||||
1110101110221000,
|
||||
1011101110100010,
|
||||
1110101110101110,
|
||||
1111111120101010,
|
||||
1110101110221000,//40
|
||||
|
||||
#GOGOSTART
|
||||
1111111011111120,
|
||||
1111122011112220,
|
||||
3020302030203020,
|
||||
#GOGOEND
|
||||
3001103030011030,
|
||||
#GOGOSTART
|
||||
1111111011111120,
|
||||
1111122011112220,
|
||||
3020302030203020,
|
||||
#GOGOEND
|
||||
3011202110112110,//48
|
||||
4400,
|
||||
30030030,
|
||||
4400,
|
||||
333333,
|
||||
4400,
|
||||
30030030,
|
||||
4400,
|
||||
#SCROLL 3
|
||||
600000000000000000000000000000000008000000000000,
|
||||
#SCROLL 1
|
||||
4000400000000000,
|
||||
3000003000003000,
|
||||
4000400000000000,
|
||||
333333,
|
||||
4000400000000000,
|
||||
3000003000003000,
|
||||
4000400000000000,
|
||||
#SCROLL 3
|
||||
600000000000000000000000000000000008000000000000,
|
||||
#GOGOSTART
|
||||
#SCROLL 0.75
|
||||
#MEASURE 3/4
|
||||
100111100200000200,
|
||||
#BARLINEOFF
|
||||
100222200200000200,
|
||||
#BARLINEON
|
||||
100111100200000200,
|
||||
#BARLINEOFF
|
||||
100222200100000200,
|
||||
#BARLINEON
|
||||
100111100200000200,
|
||||
#BARLINEOFF
|
||||
100222200200000200,
|
||||
#BARLINEON
|
||||
100111100200000200,
|
||||
#BARLINEOFF
|
||||
1
|
||||
#SCROLL 3
|
||||
4,
|
||||
#BARLINEON
|
||||
#SCROLL 0.75
|
||||
100111100200200200,
|
||||
#BARLINEOFF
|
||||
100222200200100200,
|
||||
#BARLINEON
|
||||
100111100200200200,
|
||||
#BARLINEOFF
|
||||
100222200100222200,//76
|
||||
|
||||
#BARLINEON
|
||||
#GOGOEND
|
||||
100111100200100200,
|
||||
#BARLINEOFF
|
||||
100111100200100500,
|
||||
#BARLINEON
|
||||
000000000008000000000000000000000000,
|
||||
#SCROLL 1
|
||||
111011101111,
|
||||
#MEASURE 4/4
|
||||
1022102010221020,
|
||||
1022102011201022,
|
||||
1010221010201022,
|
||||
1010221010221020,
|
||||
1120102011201020,
|
||||
1120102210201120,
|
||||
1120112010112010,//87
|
||||
|
||||
#GOGOSTART
|
||||
3030004030221020,//88
|
||||
|
||||
#SCROLL 1.5
|
||||
#GOGOEND
|
||||
1022102210221022,
|
||||
1120112210211120,
|
||||
1022102210221022,
|
||||
1120112210211120,
|
||||
#SCROLL 2
|
||||
1022112110221021,
|
||||
1121112210211120,
|
||||
1022112110221021,
|
||||
1121112210211120,//96
|
||||
|
||||
#SCROLL 2.5
|
||||
#GOGOSTART
|
||||
1000100020100022,//97
|
||||
|
||||
#GOGOEND
|
||||
1011202210112022,//98
|
||||
|
||||
#GOGOSTART
|
||||
1000100040100021,//99
|
||||
|
||||
#GOGOEND
|
||||
1012202110122021,//100
|
||||
|
||||
#GOGOSTART
|
||||
1021112010211120,
|
||||
#SCROLL 3
|
||||
1122112211221122,
|
||||
1040404010404040,
|
||||
#SCROLL 4
|
||||
1121212111212121,//104
|
||||
|
||||
#GOGOEND
|
||||
1,
|
||||
|
||||
|
||||
#END
|
||||
|
||||
|
||||
COURSE:Oni
|
||||
LEVEL:8
|
||||
BALLOON:4,27
|
||||
SCOREINIT:390
|
||||
SCOREDIFF:90
|
||||
|
||||
#START
|
||||
3000100010101020,
|
||||
1010100010101030,
|
||||
3000100020100020,
|
||||
0010111020202020,
|
||||
3000100010101020,
|
||||
1010100010101030,
|
||||
3000100020100020,
|
||||
1010101011101000,
|
||||
1020102010201020,
|
||||
1011102010111020,//10
|
||||
|
||||
#GOGOSTART
|
||||
3000300030111010,
|
||||
3030004030101111,//12
|
||||
|
||||
#GOGOEND
|
||||
1020102010201020,
|
||||
1011102010111020,//14
|
||||
|
||||
#GOGOSTART
|
||||
3000300030111010,
|
||||
3000403000403000,//16
|
||||
|
||||
#GOGOEND
|
||||
1020111020102010,
|
||||
0010201011102020,
|
||||
1020111020102010,
|
||||
0010201011102220,
|
||||
1020111020102010,
|
||||
0010201011102020,
|
||||
1020111020100020,//23
|
||||
|
||||
#GOGOSTART
|
||||
3030004030222022,//24
|
||||
|
||||
#GOGOEND
|
||||
1020111020102010,
|
||||
0010201011102020,
|
||||
1020111020102010,
|
||||
0010201011102220,
|
||||
1020111020102010,
|
||||
0010201011102020,
|
||||
1020111020100020,//31
|
||||
|
||||
#GOGOSTART
|
||||
1010002010221022,//32
|
||||
|
||||
#GOGOEND
|
||||
1020102010221020,
|
||||
1020102010222020,
|
||||
1120112010201020,
|
||||
1022102210221010,
|
||||
1020102010221020,
|
||||
1020102010222020,
|
||||
1120112022202020,
|
||||
1000000010111010,//40
|
||||
|
||||
#GOGOSTART
|
||||
33,
|
||||
33,
|
||||
3333,//43
|
||||
|
||||
#GOGOEND
|
||||
1022102210221020,//44
|
||||
|
||||
#GOGOSTART
|
||||
33,
|
||||
33,
|
||||
3333,//47
|
||||
|
||||
#GOGOEND
|
||||
1122112211221110,
|
||||
10102011,
|
||||
10010121,
|
||||
1121,
|
||||
444333,
|
||||
10102011,
|
||||
10010121,
|
||||
1121,
|
||||
222222111111,
|
||||
10102011,
|
||||
10010121,
|
||||
1121,
|
||||
444333,
|
||||
10102011,
|
||||
10010121,
|
||||
1121,
|
||||
111111700800,//64
|
||||
|
||||
#MEASURE 3/4
|
||||
#GOGOSTART
|
||||
101202,
|
||||
102102,
|
||||
101212,
|
||||
300302,
|
||||
121202,
|
||||
102102,
|
||||
121202,
|
||||
111400,
|
||||
302010111040,
|
||||
302010111020,
|
||||
302010111040,
|
||||
302010102220,//76
|
||||
|
||||
#GOGOEND
|
||||
300070,
|
||||
,
|
||||
008,
|
||||
111010101111,
|
||||
#MEASURE 4/4
|
||||
1020111020102010,
|
||||
0010201011102010,
|
||||
1020111020102000,
|
||||
1010101011101110,
|
||||
1020111020102010,
|
||||
0010201011102010,
|
||||
1020111020102000,//87
|
||||
|
||||
#GOGOSTART
|
||||
3030004030222022,//88
|
||||
|
||||
#GOGOEND
|
||||
1020112010201120,
|
||||
1010222010102220,
|
||||
1010201110201120,
|
||||
1010222010102220,
|
||||
1020112010201120,
|
||||
1010222010102220,
|
||||
1010201110201120,
|
||||
1110222011102220,//96
|
||||
|
||||
#GOGOSTART
|
||||
11,//97
|
||||
|
||||
#GOGOEND
|
||||
1111,//98
|
||||
|
||||
#GOGOSTART
|
||||
33,//99
|
||||
|
||||
#GOGOEND
|
||||
3333,//100
|
||||
|
||||
#GOGOSTART
|
||||
3131,
|
||||
12121212,
|
||||
11221122,
|
||||
1122112211221120,//104
|
||||
|
||||
#GOGOEND
|
||||
3,
|
||||
|
||||
|
||||
#END
|
||||
|
||||
|
||||
COURSE:Hard
|
||||
LEVEL:7
|
||||
BALLOON:5,5,10
|
||||
SCOREINIT:430
|
||||
SCOREDIFF:120
|
||||
|
||||
#START
|
||||
30101110,
|
||||
11101110,
|
||||
30102101,
|
||||
01012020,
|
||||
30101110,
|
||||
11101110,
|
||||
30102100,
|
||||
1010101011103000,
|
||||
11210120,
|
||||
11211021,//10
|
||||
|
||||
#GOGOSTART
|
||||
3330,
|
||||
33043000,//12
|
||||
|
||||
#GOGOEND
|
||||
11210120,
|
||||
11211021,//14
|
||||
|
||||
#GOGOSTART
|
||||
3330,
|
||||
30430430,//16
|
||||
|
||||
#GOGOEND
|
||||
10201101,
|
||||
01201120,
|
||||
11201101,
|
||||
01201120,
|
||||
10201101,
|
||||
01201120,
|
||||
11201102,//23
|
||||
|
||||
#GOGOSTART
|
||||
33043000,//24
|
||||
|
||||
#GOGOEND
|
||||
10201101,
|
||||
01201120,
|
||||
11201101,
|
||||
01201120,
|
||||
10201101,
|
||||
01201120,
|
||||
11201102,//31
|
||||
|
||||
#GOGOSTART
|
||||
300000300000000000400000600000000000000008000000,//32
|
||||
|
||||
#GOGOEND
|
||||
1110,
|
||||
10001110,
|
||||
11111000,
|
||||
1011100010111000,
|
||||
1110,
|
||||
10001110,
|
||||
10101111,
|
||||
1000000010111010,//40
|
||||
|
||||
#GOGOSTART
|
||||
33,
|
||||
33,
|
||||
3333,//43
|
||||
|
||||
#GOGOEND
|
||||
600000000000000000000000000000000008000000000000,//44
|
||||
|
||||
#GOGOSTART
|
||||
33,
|
||||
33,
|
||||
3333,//47
|
||||
|
||||
#GOGOEND
|
||||
7008,
|
||||
10102012,
|
||||
10010121,
|
||||
1120,
|
||||
300333,
|
||||
10102012,
|
||||
10010121,
|
||||
1120,
|
||||
7008,
|
||||
10102012,
|
||||
10010121,
|
||||
1120,
|
||||
300333,
|
||||
10102012,
|
||||
10010121,
|
||||
1120,
|
||||
111111100000,//64
|
||||
|
||||
#MEASURE 3/4
|
||||
#GOGOSTART
|
||||
101002,
|
||||
102100,
|
||||
101002,
|
||||
33,
|
||||
101002,
|
||||
102100,
|
||||
101002,
|
||||
14,
|
||||
101002,
|
||||
102100,
|
||||
101002,
|
||||
11,//76
|
||||
|
||||
#GOGOEND
|
||||
307,
|
||||
,
|
||||
008,
|
||||
,
|
||||
#MEASURE 4/4
|
||||
10201101,
|
||||
01201120,
|
||||
11201101,
|
||||
0010202011102000,
|
||||
10201101,
|
||||
01201120,
|
||||
11201102,//87
|
||||
|
||||
#GOGOSTART
|
||||
3030004030111010,//88
|
||||
|
||||
#GOGOEND
|
||||
10201201,
|
||||
01221120,
|
||||
11201201,
|
||||
01221120,
|
||||
10201201,
|
||||
01221120,
|
||||
11201201,
|
||||
01221120,//96
|
||||
|
||||
#GOGOSTART
|
||||
11,//97
|
||||
|
||||
#GOGOEND
|
||||
1111,//98
|
||||
|
||||
#GOGOSTART
|
||||
33,//99
|
||||
|
||||
#GOGOEND
|
||||
3333,//100
|
||||
|
||||
#GOGOSTART
|
||||
11201120,
|
||||
11221120,
|
||||
11221122,
|
||||
1110202011102000,//104
|
||||
|
||||
#GOGOEND
|
||||
3,
|
||||
|
||||
#END
|
||||
|
||||
COURSE:Normal
|
||||
LEVEL:5
|
||||
BALLOON:5,5,10,5
|
||||
SCOREINIT:580
|
||||
SCOREDIFF:130
|
||||
|
||||
#START
|
||||
3,
|
||||
,
|
||||
3,
|
||||
,
|
||||
3,
|
||||
,
|
||||
3,
|
||||
3,
|
||||
1212,
|
||||
1212,//10
|
||||
|
||||
#GOGOSTART
|
||||
1110,
|
||||
11021000,//12
|
||||
|
||||
#GOGOEND
|
||||
1212,
|
||||
1212,//14
|
||||
|
||||
#GOGOSTART
|
||||
1110,
|
||||
500000000000000000000000000000000008000000000000,//16
|
||||
|
||||
#GOGOEND
|
||||
10201100,
|
||||
1212,
|
||||
10201100,
|
||||
1212,
|
||||
10202200,
|
||||
1212,
|
||||
10202200,//23
|
||||
|
||||
#GOGOSTART
|
||||
11021000,//24
|
||||
|
||||
#GOGOEND
|
||||
10201100,
|
||||
1212,
|
||||
10201100,
|
||||
1212,
|
||||
10202200,
|
||||
1212,
|
||||
10202200,//31
|
||||
|
||||
#GOGOSTART
|
||||
1,//32
|
||||
|
||||
#GOGOEND
|
||||
1110,
|
||||
10001110,
|
||||
11101000,
|
||||
10001110,
|
||||
1110,
|
||||
10001110,
|
||||
11101010,
|
||||
1,//40
|
||||
|
||||
#GOGOSTART
|
||||
33,
|
||||
33,
|
||||
3330,//43
|
||||
|
||||
#GOGOEND
|
||||
600000000000000000000000000000000008000000000000,//44
|
||||
|
||||
#GOGOSTART
|
||||
33,
|
||||
33,
|
||||
3330,//47
|
||||
|
||||
#GOGOEND
|
||||
7008,
|
||||
10100020,
|
||||
10010110,
|
||||
1100,
|
||||
500000000000000000000000000000000008000000000000,
|
||||
10100020,
|
||||
10010110,
|
||||
1100,
|
||||
7008,
|
||||
10100020,
|
||||
10010110,
|
||||
1100,
|
||||
500000000000000000000000000000000008000000000000,
|
||||
10100020,
|
||||
10010110,
|
||||
1100,
|
||||
1,//64
|
||||
|
||||
#MEASURE 3/4
|
||||
#GOGOSTART
|
||||
101002,
|
||||
1000,
|
||||
101002,
|
||||
300300,
|
||||
101002,
|
||||
1000,
|
||||
101002,
|
||||
14,
|
||||
101002,
|
||||
1000,
|
||||
101002,
|
||||
11,//76
|
||||
|
||||
#GOGOEND
|
||||
37,
|
||||
,
|
||||
08,
|
||||
,
|
||||
#MEASURE 4/4
|
||||
10201100,
|
||||
1212,
|
||||
10201100,
|
||||
1212,
|
||||
10202200,
|
||||
1212,
|
||||
10202200,//87
|
||||
|
||||
#GOGOSTART
|
||||
11021000,//88
|
||||
|
||||
#GOGOEND
|
||||
10201100,
|
||||
11101020,
|
||||
10201100,
|
||||
11102020,
|
||||
10202200,
|
||||
11101020,
|
||||
10202200,
|
||||
11102020,//96
|
||||
|
||||
#GOGOSTART
|
||||
11,//97
|
||||
|
||||
#GOGOEND
|
||||
1110,//98
|
||||
|
||||
#GOGOSTART
|
||||
33,//99
|
||||
|
||||
#GOGOEND
|
||||
3330,//100
|
||||
|
||||
#GOGOSTART
|
||||
1111,
|
||||
10101110,
|
||||
11101110,
|
||||
7008,//104
|
||||
|
||||
#GOGOEND
|
||||
3,
|
||||
|
||||
#END
|
||||
|
||||
COURSE:Easy
|
||||
LEVEL:4
|
||||
BALLOON:5,5,10,5
|
||||
SCOREINIT:360
|
||||
SCOREDIFF:100
|
||||
|
||||
#START
|
||||
3,
|
||||
,
|
||||
3,
|
||||
,
|
||||
3,
|
||||
,
|
||||
3,
|
||||
,
|
||||
11,
|
||||
11,//10
|
||||
|
||||
#GOGOSTART
|
||||
1110,
|
||||
11021000,//12
|
||||
|
||||
#GOGOEND
|
||||
11,
|
||||
11,//14
|
||||
|
||||
#GOGOSTART
|
||||
1110,
|
||||
500000000000000000000000000000000008000000000000,//16
|
||||
|
||||
#GOGOEND
|
||||
1110,
|
||||
1111,
|
||||
1110,
|
||||
1110,
|
||||
2220,
|
||||
2222,
|
||||
2220,//23
|
||||
|
||||
#GOGOSTART
|
||||
11021000,//24
|
||||
|
||||
#GOGOEND
|
||||
1110,
|
||||
1111,
|
||||
1110,
|
||||
1110,
|
||||
2220,
|
||||
2222,
|
||||
2220,//31
|
||||
|
||||
#GOGOSTART
|
||||
100000100000000000500000000000000008000000000000,//32
|
||||
|
||||
#GOGOEND
|
||||
1110,
|
||||
11,
|
||||
1110,
|
||||
1010,
|
||||
1110,
|
||||
10001000,
|
||||
2220,
|
||||
1,//40
|
||||
|
||||
#GOGOSTART
|
||||
33,
|
||||
33,
|
||||
3330,//43
|
||||
|
||||
#GOGOEND
|
||||
600000000000000000000000000000000008000000000000,//44
|
||||
|
||||
#GOGOSTART
|
||||
33,
|
||||
33,
|
||||
3330,//47
|
||||
|
||||
#GOGOEND
|
||||
7008,
|
||||
10100000,
|
||||
10010010,
|
||||
1100,
|
||||
500000000000000000000000000000000008000000000000,
|
||||
10100000,
|
||||
10010010,
|
||||
1100,
|
||||
7008,
|
||||
10100000,
|
||||
10010010,
|
||||
1100,
|
||||
500000000000000000000000000000000008000000000000,
|
||||
10100000,
|
||||
10010010,
|
||||
1100,
|
||||
1,
|
||||
|
||||
#MEASURE 3/4
|
||||
#GOGOSTART
|
||||
101000,
|
||||
1000,
|
||||
101000,
|
||||
300300,
|
||||
101000,
|
||||
1000,
|
||||
101000,
|
||||
14,
|
||||
101000,
|
||||
1000,
|
||||
101000,
|
||||
11,//76
|
||||
|
||||
#GOGOEND
|
||||
37,
|
||||
,
|
||||
08,
|
||||
,
|
||||
#MEASURE 4/4
|
||||
1110,
|
||||
1111,
|
||||
1110,
|
||||
1111,
|
||||
1110,
|
||||
1111,
|
||||
1110,//87
|
||||
|
||||
#GOGOSTART
|
||||
11021000,//88
|
||||
|
||||
#GOGOEND
|
||||
1111,
|
||||
11,
|
||||
1111,
|
||||
11,
|
||||
1111,
|
||||
11,
|
||||
1111,
|
||||
11,//96
|
||||
|
||||
#GOGOSTART
|
||||
11,//97
|
||||
|
||||
#GOGOEND
|
||||
1110,//98
|
||||
|
||||
#GOGOSTART
|
||||
33,//99
|
||||
|
||||
#GOGOEND
|
||||
3330,//100
|
||||
|
||||
#GOGOSTART
|
||||
1111,
|
||||
1111,
|
||||
1111,
|
||||
7008,//104
|
||||
|
||||
#GOGOEND
|
||||
3,
|
||||
|
||||
#END
|
||||
Reference in New Issue
Block a user