This commit is contained in:
2026-03-04 23:59:27 +09:00
parent 6e0312f5b4
commit 4b4e2b8c98
1128 changed files with 668765 additions and 0 deletions

511
tja/287.tja Normal file
View File

@@ -0,0 +1,511 @@
//TJADB Project
TITLE:Growing Up
TITLEJA:Growing Up
SUBTITLE:--MintJam feat. TERRA
SUBTITLEJA:日替り無料
BPM:190
WAVE:Growing Up.ogg
OFFSET:-1.527
DEMOSTART:70.924
COURSE:Oni
LEVEL:6
SCOREINIT:420
SCOREDIFF:110
#START
0000000000112000,
10210120,
10210120,
11122212,
11201120,
1000201110102010,
1010201000112020,
11202101,
0010201020111010,
12112112,
#MEASURE 2/4
11102000,
#MEASURE 4/4
11201201,
11201201,
11201201,
11201120,
11201201,
11201201,
11201202,
11210140,
11201201,
11201201,
11201201,
11201120,
11201201,
11201201,
11201212,
1000101110400010,
11201201,
11201201,
11201211,
1120001011200010,
11201201,
11201201,
11210120,
12020140,
10201120,
10201120,
10201120,
10210120,
10211110,
1111,
1010200010200011,
12010111,
#MEASURE 3/4
112012,
112012,
101020202210,
101100,
202010222020,
113030,
112102,
112012,
110101,
112022,
121,
100020112000,
#MEASURE 4/4
30303303,
#MEASURE 3/4
030333,
#MEASURE 4/4
30303303,
0020202210202000,
#GOGOSTART
10210121,
10210120,
10210121,
11210120,
10210121,
10210120,
10210121,
2011201120112010,
10210121,
10210120,
10210121,
11201020,
10210121,
01201020,
11120120,
1022102210221010,
10210121,
10210120,
10210121,
10210120,
10210121,
10210120,
10210121,
2011201120112010,
10210121,
10210120,
10210121,
11201020,
10210121,
11201120,
11120120,
33,
#GOGOEND
10210120,
10210120,
11221121,
11201120,
1000201110102010,
1010201000112020,
11202101,
0010201020111010,
12112112,
#MEASURE 2/4
11102010,
#MEASURE 4/4
30330303,
#END
COURSE:2
LEVEL:5
BALLOON:18,25
SCOREINIT:510
SCOREDIFF:130
#START
#MEASURE 4/4
,
10210120,
10210120,
11102210,
11201200,
10210121,
10210120,
11202101,
01201011,
12012012,
#MEASURE 2/4
0120,
#MEASURE 4/4
11201210,
11201210,
10210120,
12001020,
11201120,
11201120,
10150000,
0800000000000000,
11201210,
11201210,
11201210,
11201020,
11201120,
11201120,
10150000,
0800000030400000,
11201201,
11201201,
11201201,
11201020,
11201201,
11201201,
10150000,
0800000000000000,
10201120,
10201120,
10201120,
10210120,
10210120,
1111,
11201205,
00008000,
#MEASURE 3/4
112010,
112010,
112020,
303300,
112010,
113030,
112010,
112010,
101101,
58,
333,
333,
#MEASURE 4/4
7,
#MEASURE 3/4
008,
#MEASURE 4/4
30303303,
,
#GOGOSTART
10210120,
10210120,
10210121,
1212,
10210120,
10210120,
10210120,
11211120,
10210120,
10210120,
10210120,
1012,
10210120,
1212,
5,
08000000,
10210120,
10210120,
10210121,
1212,
10210120,
10210120,
10210120,
11211120,
10210121,
10210120,
10210120,
1012,
10210121,
1212,
50000800,
33,
#GOGOEND
10210120,
10210120,
11201120,
11201020,
10211020,
10210120,
11202101,
01101110,
12012012,
#MEASURE 2/4
0120,
#MEASURE 4/4
7,
,
8,
,
#END
COURSE:1
LEVEL:5
BALLOON:14,18,18
SCOREINIT:630
SCOREDIFF:170
#START
#MEASURE 4/4
,
10110010,
10110010,
1111,
12,
10110010,
10110100,
10101101,
1117,
,
#MEASURE 2/4
08,
#MEASURE 4/4
10001110,
10001110,
10001110,
12,
10001110,
10001110,
10001110,
1,
10001110,
10101110,
10001110,
12,
10001110,
10101110,
10001110,
1,
10001120,
10001120,
10001120,
1212,
10001120,
10001120,
10001120,
1,
10201100,
10201100,
10201100,
1,
10201100,
10201100,
1212,
5000000000080000,
#MEASURE 3/4
112,
121,
101100,
202200,
112,
121,
112,
121,
101101,
1,
333,
333,
#MEASURE 4/4
7,
#MEASURE 3/4
,
#MEASURE 4/4
0800,
,
#GOGOSTART
10110010,
10110010,
10000000100050000000000000000008,
,
10110010,
0111,
10110010,
1,
10110020,
10110020,
10110020,
1,
10110020,
1212,
5000000000000000000000000000000000000000000000000000000000000008,
,
10110020,
10220020,
100000001000500000000000000000008,
,
10110020,
10220020,
10000000100050000000000000000008,
,
10110020,
10220020,
10110020,
1,
10110020,
1212,
5000000000080000,
33,
#GOGOEND
10201110,
1210,
10201110,
12,
10201110,
1210,
10101101,
1115,
,
#MEASURE 2/4
08,
#MEASURE 4/4
9,
09,
8,
,
#END
COURSE:0
LEVEL:3
BALLOON:11,15,10
SCOREINIT:460
SCOREDIFF:120
#START
#MEASURE 4/4
,
1011,
12,
1111,
12,
1011,
12,
1111,
17,
,
#MEASURE 2/4
8,
#MEASURE 4/4
1011,
1011,
1011,
12,
1011,
1011,
1000050000000000,
0800,
1011,
1011,
1011,
12,
1011,
1011,
1000050000000000,
0800,
1012,
1012,
1012,
12,
1012,
1012,
1000000000000000000050000000000000000000000000000000000000000008,
,
12,
12,
12,
1,
1011,
1011,
11,
5000000000080000,
#MEASURE 3/4
101,
101,
101,
1,
101,
111,
101,
101,
101,
1,
333,
333,
#MEASURE 4/4
7,
#MEASURE 3/4
,
#MEASURE 4/4
0800,
,
#GOGOSTART
1011,
1011,
12,
1111,
1011,
1011,
1011,
1,
1011,
1011,
12,
1111,
1011,
1011,
5000000000000000000000000000000000000000000000000000000000000008,
,
1011,
1011,
12,
1111,
1011,
1011,
12,
1111,
1011,
1011,
12,
1111,
1011,
1011,
5000000000080000,
33,
#GOGOEND
1011,
12,
1111,
12,
1011,
12,
1111,
1015,
000000000000000000000000000000000000000000000008,
#MEASURE 2/4
,
#MEASURE 4/4
9,
09,
8,
,
#END