This commit is contained in:
2026-03-04 23:59:27 +09:00
parent 6e0312f5b4
commit 4b4e2b8c98
1128 changed files with 668765 additions and 0 deletions

367
tja/298.tja Normal file
View File

@@ -0,0 +1,367 @@
//TJADB Project
TITLE:Mugen no Sora
TITLEJA:夢幻の蒼空
SUBTITLE:--Silver Forest feat. SAYA
SUBTITLEJA:Silver Forest feat.SAYA
BPM:180
WAVE:Mugen no Sora.ogg
OFFSET:-0.713
DEMOSTART:61.365
COURSE:Oni
LEVEL:8
SCOREINIT:640
SCOREDIFF:160
#START
2,
2002,
22,
2002,
22,
2000000000112000,//6
#GOGOSTART
3000201002102021,
1010200210102011,
1000201002102021,
1010200210102011,
1000201002102021,
500000000000000000000000000000000008000000000000,//12
#GOGOEND
10101012,
10101021,
10101012,
10100021,
10101012,
10101021,
10101012,
1000100010400022,
1010200110102022,
1010200110102022,
1110400111104002,
1110400111104002,
1010200110202022,
1020202210102000,
500000000000000000000000000008000000200000200000,
0000003000211010,
12012021,
12012021,
00101021,
0000003000211010,
12012021,
1020001020111050,
000000000000000000000000000008000000000000000000,
00030122,
1110202210102021,
1010200210102011,
1010202210102021,
1010200210102000,
1000201110102011,
2010201000102011,
1000201110102011,
2012201120122050,
000000000000000000000000000000000008000000000000,
3003003020202022,//46
#GOGOSTART
1010200210102022,
1020200210202022,
1010202210202022,
1020202010201021,
1010202110202021,
1010202110202022,
1110400211104002,
1110400211020210,
1010200210102022,
1020200210202022,
1010202210202022,
1020202010201021,
1010202110202211,//60
#GOGOEND
1000000000001120,//61
#GOGOSTART
3000201002102021,
1010200210102011,
1000201002102021,
1010200210102011,
1000201002102021,
500000000000000000000000000000000000000000000008,
#GOGOEND
#END
COURSE:Hard
LEVEL:6
SCOREINIT:820
SCOREDIFF:250
#START
2,
2,
22,
2,
22,
2,//6
#GOGOSTART
3000101000222020,
10201120,
3000101000222020,
10201120,
3000101000222020,
500000000000000000000000000000000008000000000000,//12
#GOGOEND
1111,
10200021,
10101021,
00200021,
1111,
10200021,
10101021,
00001400,
10201120,
10201120,
1110200011102000,
1110200011102000,
10201120,
10201120,
500000000000000000000008000000000000200000200000,
0000003000111010,
10012000,
10022000,
10101021,
0000003000111010,
10012000,
1000002020111050,
000000000000000000000000000008000000000000000000,
00010122,
10201120,
10210120,
10201120,
10221220,
10210101,
0000200011102000,
10210105,
000000000000000000000000000008000000000000600000,
000000000000000000000000000000000008000000000000,
3003003000000000,//46
#GOGOSTART
30211022,
10211022,
1000222010002220,
1000222020002000,
1000222010002000,
1000222010002000,
500000000000000000000000000000000000000000000008,
,
30211022,
10211022,
1000222010002220,
1000222020002000,
1000222010002000,//60
#GOGOEND
3,//61
#GOGOSTART
3000101000222020,
10201120,
3000101000222020,
10201120,
3000101000222020,
500000000000000000000000000000000000000000000008,
,//67
#GOGOEND
,
#END
COURSE:Normal
LEVEL:5
BALLOON:16
SCOREINIT:1090
SCOREDIFF:420
#START
2,
2,
22,
2,
22,
2,//6
#GOGOSTART
30010110,
1,
30010110,
1,
30010110,
500000000000000000000000000008000000000000000000,//12
#GOGOEND
1111,
10200011,
10001011,
,
1111,
10200011,
10101011,
00000400,
1212,
10200011,
12,
12,
500000000000000000000008000000000000000000000000,
1212,
500000000000000000000000000000000000000000000008,
,
10011000,
10011000,
10101022,
,
10011000,
10011005,
000000000000000000000000000000000008000000000000,
,
10101022,
00101022,
00101022,
0222,
10110205,
000000000000000000000000000008000000000000000000,
10110207,
,
,
80001110,//46
#GOGOSTART
10001110,
10000011,
1122,
500000000000000000000008000000000000000000000000,
1122,
1122,
500000000000000000000000000000000000000000000008,
00001110,
20001110,
20000011,
1122,
500000000000000000000008000000000000000000000000,
1122,//60
#GOGOEND
3,//61
#GOGOSTART
30010110,
1,
30010110,
1,
30010110,
500000000000000000000000000000000000000000000008,
,//67
#GOGOEND
,
#END
COURSE:Easy
LEVEL:3
BALLOON:12
SCOREINIT:970
SCOREDIFF:673
#START
2,
2,
22,
2,
22,
2,//6
#GOGOSTART
3011,
1,
3011,
1,
3011,
500000000000000000000000000008000000000000000000,//12
#GOGOEND
11,
1,
11,
2,
11,
1,
11,
2,
11,
11,
12,
12,
58,
1110,
5,
8,
3,
2,
11,
2,
3,
2,
5008,
,
31,
1110,
11,
1,
12,
1,
12,
7,
,
8,//46
#GOGOSTART
11,
1,
1110,
1,
1110,
1110,
5,
8,
11,
1,
1110,
2,
1110,//60
#GOGOEND
3,//61
#GOGOSTART
3011,
1,
3011,
1,
3011,
500000000000000000000000000000000000000000000008,
,//67
#GOGOEND
,
#END