This commit is contained in:
2026-03-04 23:59:27 +09:00
parent 6e0312f5b4
commit 4b4e2b8c98
1128 changed files with 668765 additions and 0 deletions

332
tja/305.tja Normal file
View File

@@ -0,0 +1,332 @@
//TJADB Project
TITLE:Nee Oshiete
TITLEJA:ねぇ教えて
SUBTITLE:--Torine
BPM:100
OFFSET:-0.827
WAVE:Nee Oshiete.ogg
DEMOSTART:49.614
COURSE:Oni
LEVEL:7
BALLOON:20,15,20
SCOREINIT:740
SCOREDIFF:198
#START
,
1001001000002000,
1212,
1022102200002000,
1000200010002011,
11120000,
1212,
1022102000002000,
1000200010001121,
01110120,
1012021010120210,
1021021000000000,
1122011010210210,
1122022010002000,
1122011010210210,
1122112200001121,
1002021010212200,
211211212000,
211211212000,
7,
#MEASURE 2/4
80000022,//20
#GOGOSTART
#MEASURE 4/4
0020110211012022,
1010102100000022,
0020110211012022,
1001100120112022,
0020110211012022,
1010102200000022,
0020110210001122,
20401122,
1012011010120110,
1012011011121112,
1021020070000000,//31
#GOGOEND
8,
1010220102102022,
1010220102102022,
500000000000000000000000000000000000000008000000,
0202,
2011201200002000,
0000200000002022,
1022101000002000,
0202,
1011201200002000,
0202,
112112112000,
100010002000100010002000100000100200000000000000,
7,
#MEASURE 2/4
80000022,//46
#GOGOSTART
#MEASURE 4/4
0020110211012022,
1010201200000022,
0020110211012022,
100010001000100200000100200000100100200000200200,
0020110200000102,
1021021020000022,
0020110211012022,
1020020120120120,
20001122,
1012011010120110,
1012011011121112,
1021020010000000,//58
#GOGOEND
#END
COURSE:Hard
LEVEL:6
BALLOON:15,10,15
#START
1001001000002000,
1212,
1020102200002000,
1000200010002011,
11120000,
1212,
1020112000002000,
1000200010001011,
01110020,
1011002010110020,
1001001000000000,
1022020010110020,
1011002010002000,
1022001010220200,
1001001000000000,
1022001010220200,
101101102000,
101101102000,
7,
#MEASURE 2/4
80000022,//20
#GOGOSTART
#MEASURE 4/4
0000110200000020,
1010101200000022,
0000110200001010,
1002100000000022,
0000110200000000,
1010101200000022,
0000110200001102,
20401122,
1012001010120010,
1000001200001011,
2011010070000000,//31
#GOGOEND
8,
1000220100102000,
1000220100102000,
500000000000000000000000000000000000000008000000,
0202,
1011101200002000,
0000200000002011,
11110020,
0202,
1110101200002000,
0202,
101101102000,
100000001000100000001000100000002002000000000000,
7,
#MEASURE 2/4
80000022,//46
#GOGOSTART
#MEASURE 4/4
0000110200000020,
1010101200000022,
0000110200001011,
100000002000100000000000000000000000000000200200,
0020110200000102,
1021021020000022,
0000110210001102,
1000020120120120,
20001122,
1012001010120010,
1012001010000000,
1021020010000000,//58
#GOGOEND
,
,
#END
COURSE:Normal
LEVEL:5
BALLOON:9,8,9
#START
1001001000000000,
1210,
1110,
1210,
10210000,
1210,
1110,
1210,
10210000,
1012,
1001001000000000,
1000200010010010,
,
1210,
1001001000000000,
1210,
100100101000,
100100101000,
7,
#MEASURE 2/4
8,//20
#GOGOSTART
#MEASURE 4/4
34,
10111000,
34,
1102,
34,
10112000,
34,
10001011,
1000000010010010,
10012000,
17,//31
#GOGOEND
8,
0202,
0202,
500000000000000000000000000000000000000008000000,
0202,
1000100100000000,
0202,
10110000,
0202,
1000100100000000,
0202,
100100102000,
1000100010020000,
7,
#MEASURE 2/4
8,//46
#GOGOSTART
#MEASURE 4/4
34,
10111000,
34,
1102,
3000000040000100,
1001001010000000,
3212,
1000010010010010,
1,
3000000010010010,
10022000,
1210,//58
#GOGOEND
,
,
#END
COURSE:Easy
LEVEL:4
BALLOON:7,5,7,6
#START
1001001000000000,
12,
1110,
12,
10110000,
12,
1110,
1120,
10030000,
12,
1001001000000000,
1000000010010010,
,
12,
1001001000000000,
1210,
100100101000,
100100101000,
7,
#MEASURE 2/4
8,//20
#GOGOSTART
#MEASURE 4/4
34,
1110,
34,
1102,
34,
1120,
34,
10001011,
1000000010010010,
14,
17,//31
#GOGOEND
8,
0202,
0202,
500000000000000000000000000000000000000008000000,
0202,
1000100100000000,
0202,
10110000,
0202,
10110000,
0202,
10010010100,
11,
7,
#MEASURE 2/4
8,//46
#GOGOSTART
#MEASURE 4/4
34,
1110,
34,
1100,
34,
1110,
3212,
10070000,
8,
30001001,
14,
11,//58
#GOGOEND
,
,
#END