tja
This commit is contained in:
409
tja/310.tja
Normal file
409
tja/310.tja
Normal file
@@ -0,0 +1,409 @@
|
||||
//TJADB Project
|
||||
TITLE:Noushou Sakuretsu Girl
|
||||
TITLEJA:脳漿炸裂ガール
|
||||
SUBTITLE:--rerulili feat. Hatsune Miku & GUMI
|
||||
SUBTITLEJA:れるりり
|
||||
BPM:155
|
||||
OFFSET:-1.807
|
||||
WAVE:Noushou Sakuretsu Girl.ogg
|
||||
DEMOSTART:63.742
|
||||
|
||||
COURSE:Edit
|
||||
LEVEL:9
|
||||
SCOREINIT:470
|
||||
SCOREDIFF:100
|
||||
|
||||
|
||||
#START
|
||||
|
||||
|
||||
0020020020020020,
|
||||
0020220200202000,
|
||||
0020020020020020,
|
||||
0020220200202000,
|
||||
1020120210120210,
|
||||
1021210201212110,
|
||||
1020120210120210,
|
||||
1021120121120210,
|
||||
1020120210120210,
|
||||
1021210201212110,
|
||||
1020120210120210,
|
||||
1021120121120210,
|
||||
1102201102201102,
|
||||
2010102211221012,
|
||||
2010102211221122,
|
||||
1010221120201122,
|
||||
1012211221122112,
|
||||
2112201120201122,
|
||||
1010221120201012,
|
||||
2011202112201102,
|
||||
2112211221122211,
|
||||
1221122112211122,
|
||||
2112211221122211,
|
||||
100200200100100200201010102020201020102020102020,
|
||||
1102201102211221,
|
||||
1022101221122112,
|
||||
2112201122112201,
|
||||
1020211220101221,
|
||||
1022112211202112,
|
||||
2112201120201122,
|
||||
1012201120201122,
|
||||
500000000000000000000000000000000000000008000000,
|
||||
100202100202100202100202,
|
||||
100202100202100202102200,
|
||||
100202100200100202100202,
|
||||
001202100202100202102200,
|
||||
100202100202100202100202,
|
||||
001202100202100202102200,
|
||||
312122312122,
|
||||
1121221212121000,//40
|
||||
|
||||
#GOGOSTART
|
||||
3000300012021020,
|
||||
100000200000100200000500000000008000000200000200,
|
||||
1120211121112021,
|
||||
0202111120202020,
|
||||
3000300021112111,
|
||||
200000200000100200000500000000008000000200000200,
|
||||
1111211121112121,
|
||||
2111211120202020,
|
||||
3000300012021020,
|
||||
100000200000100200000500000000008000000200000200,
|
||||
1120211121120211,
|
||||
1112021120202020,
|
||||
3000300212112111,
|
||||
200000200000100200000500000000008000000200000200,
|
||||
1111211121112121,
|
||||
2111201120202020,
|
||||
5,
|
||||
000000000000000000000000000000000008000000000000,
|
||||
1020120210120210,
|
||||
1021210202112120,
|
||||
1020120210120210,
|
||||
1021120201211221,
|
||||
0020120210120210,
|
||||
1021210121120120,
|
||||
1021121121121121,//65
|
||||
|
||||
#GOGOEND
|
||||
|
||||
|
||||
#END
|
||||
|
||||
|
||||
COURSE:Oni
|
||||
LEVEL:8
|
||||
SCOREINIT:480
|
||||
SCOREDIFF:120
|
||||
|
||||
|
||||
#START
|
||||
|
||||
|
||||
0020020020020020,
|
||||
0020200200202000,
|
||||
0020020020020020,
|
||||
0020200200202000,
|
||||
1020110220110220,
|
||||
1020110201102110,
|
||||
1020110220110220,
|
||||
1020110201120210,
|
||||
1020110220110220,
|
||||
1020110201102110,
|
||||
1020110220110220,
|
||||
1020110201120210,
|
||||
1101102202201101,
|
||||
1020201110202011,
|
||||
1022201010222010,
|
||||
1110202011102020,
|
||||
1022201110222011,
|
||||
1020111020201111,
|
||||
1020111020201111,
|
||||
1022201111102201,
|
||||
1020102010201022,
|
||||
1020102010201222,
|
||||
1020102010201022,
|
||||
1020122210211120,
|
||||
1102201102201111,
|
||||
1020201110202011,
|
||||
1022201010222201,
|
||||
1020111020201111,
|
||||
1020201111102020,
|
||||
1110102220201111,
|
||||
1022201110201111,
|
||||
500000000000000000000000000000000000000008000000,
|
||||
100202000200100200000200,
|
||||
100202000200100200000200,
|
||||
100202000200100202000200,
|
||||
100202000200100200100200,
|
||||
100202000200100200000200,
|
||||
100202000200100200000200,
|
||||
311222311222,
|
||||
1122112212121000,//40
|
||||
|
||||
#GOGOSTART
|
||||
3000300022011020,
|
||||
100000100000200200000500000000008000000200000200,
|
||||
2110221022102211,
|
||||
0202211110102020,
|
||||
3000300022102210,
|
||||
200000200000100100000500000000008000000200000200,
|
||||
2110221022102211,
|
||||
1022102210102020,
|
||||
3000300022011020,
|
||||
100000100000200200000500000000008000000200000200,
|
||||
2110221022110221,
|
||||
1221022110102020,
|
||||
3000300022102210,
|
||||
200000200000100100000500000000008000000200000200,
|
||||
2111102211221022,
|
||||
1122112210102020,
|
||||
5,
|
||||
000000000000000000000000000000000008000000000000,
|
||||
1020110220110220,
|
||||
1020110201120120,
|
||||
1020110220110220,
|
||||
1020110201201021,
|
||||
0020110220110220,
|
||||
1020110201120120,
|
||||
1020110220110220,//65
|
||||
|
||||
#GOGOEND
|
||||
|
||||
|
||||
#END
|
||||
|
||||
|
||||
COURSE:Hard
|
||||
LEVEL:6
|
||||
BALLOON:14,20
|
||||
|
||||
#START
|
||||
0202,
|
||||
0020200200002000,
|
||||
0202,
|
||||
0020200200002000,
|
||||
1020100010010010,
|
||||
0020200200202000,
|
||||
1020100010010010,
|
||||
0020200200202000,
|
||||
1020100010010010,
|
||||
0020200200202000,
|
||||
1020100010010010,
|
||||
500000000000000000000000000000000008000000000000,
|
||||
1110100011101000,
|
||||
1110101020202000,
|
||||
1110100011101000,
|
||||
2022202010101000,
|
||||
1110100011101000,
|
||||
1110101020202000,
|
||||
1110100011101000,
|
||||
2022202010101000,
|
||||
7,
|
||||
8,
|
||||
,
|
||||
,
|
||||
1110200011102000,
|
||||
1110101010202000,
|
||||
1110200011102000,
|
||||
2022202010101000,
|
||||
1110200011102000,
|
||||
1110101010202000,
|
||||
1110200011102000,
|
||||
500000000000000000000000000000000008000000000000,
|
||||
10002110,
|
||||
21102110,
|
||||
10211021,
|
||||
10211020,
|
||||
10002110,
|
||||
21102110,
|
||||
34,
|
||||
600000000000000000000000000008000000000000000000,//40
|
||||
|
||||
#GOGOSTART
|
||||
3000300011102020,
|
||||
1010100100000000,
|
||||
1110101011102020,
|
||||
1110101020002000,
|
||||
3000300011101110,
|
||||
1010100100000000,
|
||||
1110101011102020,
|
||||
1110101020002000,
|
||||
3000300011102020,
|
||||
1010100200000000,
|
||||
1110101022202020,
|
||||
1110101020002000,
|
||||
3000300011101110,
|
||||
1010100200000000,
|
||||
1110101022202020,
|
||||
1110101020002000,
|
||||
9,
|
||||
09,
|
||||
8,
|
||||
,
|
||||
0010010010010010,
|
||||
0020200200202020,
|
||||
0010010010010010,
|
||||
0020200020020020,
|
||||
500000000000000000000000000000000000000000000008,//65
|
||||
|
||||
#GOGOEND
|
||||
,
|
||||
,
|
||||
#END
|
||||
|
||||
COURSE:Normal
|
||||
LEVEL:5
|
||||
BALLOON:9,18
|
||||
|
||||
#START
|
||||
0202,
|
||||
0220,
|
||||
0202,
|
||||
0220,
|
||||
1000100010010010,
|
||||
0202,
|
||||
1000100010010010,
|
||||
0202,
|
||||
1000100010010010,
|
||||
0202,
|
||||
1000100010010010,
|
||||
500000000000000000000000000008000000000000000000,
|
||||
1110,
|
||||
10102220,
|
||||
1110,
|
||||
20201110,
|
||||
1110,
|
||||
10102220,
|
||||
1110,
|
||||
20201110,
|
||||
7,
|
||||
8,
|
||||
,
|
||||
,
|
||||
1120,
|
||||
10101120,
|
||||
1120,
|
||||
10102220,
|
||||
1120,
|
||||
10101120,
|
||||
1120,
|
||||
500000000000000000000000000008000000000000000000,
|
||||
12,
|
||||
12,
|
||||
1022,
|
||||
1022,
|
||||
12,
|
||||
12,
|
||||
34,
|
||||
600000000000000000000000000008000000000000000000,//40
|
||||
|
||||
#GOGOSTART
|
||||
30301110,
|
||||
1010100100000000,
|
||||
11101010,
|
||||
11102020,
|
||||
30301110,
|
||||
1010100100000000,
|
||||
11101010,
|
||||
11102020,
|
||||
30301110,
|
||||
1010100200000000,
|
||||
11102020,
|
||||
11102020,
|
||||
30301110,
|
||||
1010100200000000,
|
||||
11102020,
|
||||
11102020,
|
||||
9,
|
||||
09,
|
||||
8,
|
||||
,
|
||||
0010010010010010,
|
||||
0202,
|
||||
0010010010010010,
|
||||
0202,
|
||||
500000000000000000000000000000000000000000000008,//65
|
||||
|
||||
#GOGOEND
|
||||
,
|
||||
,
|
||||
#END
|
||||
|
||||
COURSE:Easy
|
||||
LEVEL:4
|
||||
BALLOON:7,15
|
||||
|
||||
#START
|
||||
0202,
|
||||
0200,
|
||||
0202,
|
||||
0200,
|
||||
1110,
|
||||
22,
|
||||
1110,
|
||||
22,
|
||||
1110,
|
||||
22,
|
||||
1110,
|
||||
500000000000000000000000000008000000000000000000,
|
||||
11,
|
||||
1011,
|
||||
11,
|
||||
1011,
|
||||
12,
|
||||
1011,
|
||||
12,
|
||||
1011,
|
||||
7,
|
||||
8,
|
||||
,
|
||||
,
|
||||
11,
|
||||
1111,
|
||||
11,
|
||||
1111,
|
||||
12,
|
||||
1111,
|
||||
12,
|
||||
500000000000000000000000000008000000000000000000,
|
||||
12,
|
||||
12,
|
||||
1120,
|
||||
1120,
|
||||
12,
|
||||
12,
|
||||
34,
|
||||
600000000000000000000000000008000000000000000000,//40
|
||||
|
||||
#GOGOSTART
|
||||
3300,
|
||||
1000100100000000,
|
||||
1110,
|
||||
1122,
|
||||
3300,
|
||||
1000100100000000,
|
||||
1110,
|
||||
1122,
|
||||
3300,
|
||||
1000100200000000,
|
||||
1110,
|
||||
1122,
|
||||
3300,
|
||||
1000100200000000,
|
||||
1122,
|
||||
1122,
|
||||
9,
|
||||
09,
|
||||
8,
|
||||
,
|
||||
1110,
|
||||
2220,
|
||||
1110,
|
||||
0220,
|
||||
500000000000000000000000000000000000000000000008,//65
|
||||
|
||||
#GOGOEND
|
||||
,
|
||||
,
|
||||
#END
|
||||
Reference in New Issue
Block a user