tja
This commit is contained in:
274
tja/312.tja
Normal file
274
tja/312.tja
Normal file
@@ -0,0 +1,274 @@
|
||||
//TJADB Project
|
||||
TITLE:Yoku Asobi Yoku Manabe
|
||||
TITLEJA:よく遊びよく学べ
|
||||
SUBTITLE:--NYC
|
||||
BPM:140
|
||||
WAVE:Yoku Asobi Yoku Manabe.ogg
|
||||
OFFSET:-2.359
|
||||
DEMOSTART:61.465
|
||||
|
||||
COURSE:Oni
|
||||
LEVEL:3
|
||||
SCOREINIT:830
|
||||
SCOREDIFF:250
|
||||
|
||||
|
||||
#START
|
||||
|
||||
|
||||
1000200011102010,
|
||||
0010201011102000,
|
||||
10201102,
|
||||
22233000,
|
||||
1000200011102010, //5
|
||||
|
||||
0010201011102000,
|
||||
5,
|
||||
8000100011101010,
|
||||
02202202,
|
||||
0020000010101110, //10
|
||||
|
||||
10015000,
|
||||
8000001000201110,
|
||||
1000001000201110,
|
||||
10210120,
|
||||
1011001011011010, //15
|
||||
|
||||
1000202220222020,
|
||||
20202202,
|
||||
0020002011101010,
|
||||
10015000,
|
||||
8000001000101110, //20
|
||||
|
||||
1000201000101110,
|
||||
10210120,
|
||||
1110101000101010,
|
||||
02102100,
|
||||
12, //25
|
||||
|
||||
1212,
|
||||
12,
|
||||
10201200,
|
||||
1000200011102000,
|
||||
1000200011102020, //30
|
||||
|
||||
1000202011102000,
|
||||
1000202011102020,
|
||||
10201023,
|
||||
03001212,
|
||||
3300, //35
|
||||
|
||||
#GOGOSTART
|
||||
1110101011101000,
|
||||
2220202022202000,
|
||||
1110200011102030,
|
||||
03001111,
|
||||
1110101011101000, //40
|
||||
|
||||
2220202022202000,
|
||||
1110200011102030,
|
||||
03201120,
|
||||
10120112,
|
||||
0010102000201110, //45
|
||||
|
||||
10110102,
|
||||
0020222020111010,
|
||||
0022202011101010,
|
||||
0000200011102000,
|
||||
|
||||
#GOGOEND
|
||||
|
||||
|
||||
#END
|
||||
|
||||
|
||||
COURSE:2
|
||||
LEVEL:1
|
||||
SCOREINIT:810
|
||||
SCOREDIFF:265
|
||||
|
||||
#START
|
||||
100000000000200000000000100000100000000000100000,
|
||||
000000100000200000100000200000000000100000000000,
|
||||
100000000000200000000000100000100000000000200000,
|
||||
000000000000000000300000300000000000000000000000,
|
||||
100000000000200000000000100000100000000000100000,
|
||||
000000100000200000100000200000000000100000000000,
|
||||
500000000000000000000000000000000000000000000008,
|
||||
000000000000100000000000100000100000100000000000,
|
||||
100000000000200000000000200000200000000000200000,
|
||||
000000200000000000000000100000100000100000000000,
|
||||
100000000000000000100000500000000000000000000008,
|
||||
000000000000000000100000000000100000100000000000,
|
||||
100000000000000000100000000000100000100000000000,
|
||||
100000000000200000100000000000100000200000000000,
|
||||
500000000000000000000000000000000000000000000008,
|
||||
000000000000200000000000200000200000200000000000,
|
||||
200000000000200000000000200000200000000000200000,
|
||||
000000200000000000000000100000100000100000000000,
|
||||
100000000000000000100000500000000000000000000008,
|
||||
000000000000000000100000000000100000100000000000,
|
||||
100000000000000000100000000000100000100000000000,
|
||||
100000000000200000100000000000100000200000000000,
|
||||
100000100000100000100000000000100000100000100000,
|
||||
000000200000100000000000200000100000000000000000,
|
||||
100000000000000000000000200000000000000000000000,
|
||||
100000000000200000000000100000000000200000000000,
|
||||
100000000000000000000000200000000000000000000000,
|
||||
100000000000200000000000100000200000000000000000,
|
||||
100000000000200000000000100000100000200000000000,
|
||||
100000000000200000000000100000100000200000000000,
|
||||
100000000000200000200000100000100000200000000000,
|
||||
100000000000200000200000100000100000200000000000,
|
||||
100000000000200000000000100000000000200000300000,
|
||||
000000300000000000000000100000200000100000200000,
|
||||
300000000000300000000000000000000000000000000000,
|
||||
#GOGOSTART
|
||||
100000000000200000000000100000100000200000200000,
|
||||
100000000000200000000000100000100000200000200000,
|
||||
100000000000200000200000000000100000000000300000,
|
||||
000000300000000000000000100000100000200000000000,
|
||||
100000000000200000000000100000100000200000200000,
|
||||
100000000000200000000000100000100000200000200000,
|
||||
100000000000200000100000000000100000200000300000,
|
||||
000000300000000000000000100000100000200000000000,
|
||||
100000000000200000000000100000100000200000000000,
|
||||
100000000000200000000000100000100000200000000000,
|
||||
100000000000200000200000000000100000000000100000,
|
||||
000000200000200000000000100000000000000000500000,
|
||||
000000000000000000000000000000000000000000000008,
|
||||
000000000000000000000000300000000000300000000000,
|
||||
#GOGOEND
|
||||
|
||||
|
||||
#END
|
||||
|
||||
|
||||
COURSE:1
|
||||
LEVEL:3
|
||||
SCOREINIT:1200
|
||||
SCOREDIFF:580
|
||||
BALLOON:8
|
||||
|
||||
#START
|
||||
100000000000000000000000100000100000000000000000,
|
||||
100000000000100000000000100000000000000000000000,
|
||||
100000000000000000000000100000100000000000500000,
|
||||
000000000008000000000000300000000000000000000000,
|
||||
100000000000000000000000100000100000000000000000,
|
||||
100000000000100000000000100000000000000000000000,
|
||||
700000000000000000000000000000000000000000000000,
|
||||
800000000000100000000000300000000000000000000000,
|
||||
100000000000100000000000100000100000000000100000,
|
||||
000000000000000000000000100000000000100000000000,
|
||||
100000000000000000000000500000000000000000000000,
|
||||
000008000000000000000000100000000000100000000000,
|
||||
100000000000000000000000100000000000100000000000,
|
||||
100000000000000000000000100000000000100000000000,
|
||||
500000000000000000000000000000000000000000000008,
|
||||
000000000000100000000000300000000000000000000000,
|
||||
100000000000100000000000100000100000000000100000,
|
||||
000000000000000000000000100000000000100000000000,
|
||||
100000000000000000000000500000000000000000000000,
|
||||
000008000000000000000000100000000000100000000000,
|
||||
100000000000000000000000100000000000100000000000,
|
||||
100000000000000000000000100000000000100000000000,
|
||||
500000000000000000000000000000000000000000000008,
|
||||
000000000000000000000000000000000000000000000000,
|
||||
100000000000000000000000200000000000000000000000,
|
||||
100000000000200000000000100000000000200000000000,
|
||||
100000000000000000000000200000000000000000000000,
|
||||
100000000000000000000000000000000000000000000000,
|
||||
100000000000000000000000200000000000000000000000,
|
||||
100000000000200000000000100000000000200000000000,
|
||||
100000000000000000000000200000000000000000000000,
|
||||
100000000000200000000000100000000000000000000000,
|
||||
300000000000000000000000300000000000300000300000,
|
||||
000000300000000000000000000000000000000000000000,
|
||||
300000000000300000000000000000000000000000000000,
|
||||
#GOGOSTART
|
||||
100000000000200000000000100000100000100000000000,
|
||||
100000000000200000000000100000100000100000000000,
|
||||
100000000000100000000000100000000000000000000000,
|
||||
500000000000000000000000000008000000000000000000,
|
||||
100000000000200000000000100000100000100000000000,
|
||||
100000000000200000000000100000100000100000000000,
|
||||
100000000000100000000000100000000000000000000000,
|
||||
500000000000000000000000000008000000000000000000,
|
||||
100000000000200000000000100000000000200000000000,
|
||||
100000000000000000000000100000000000100000000000,
|
||||
100000000000200000000000100000000000100000100000,
|
||||
000000000000000000000000000000100000100000500000,
|
||||
000000000000000000000000000000000000000000000008,
|
||||
000000000000000000000000300000000000000000000000,
|
||||
#GOGOEND
|
||||
,
|
||||
,
|
||||
,
|
||||
,
|
||||
,
|
||||
#END
|
||||
|
||||
COURSE:0
|
||||
LEVEL:2
|
||||
SCOREINIT:1150
|
||||
SCOREDIFF:810
|
||||
|
||||
#START
|
||||
100000000000000000000000100000000000000000000000,
|
||||
100000000000100000000000100000000000000000000000,
|
||||
100000000000000000000000100000000000000000000000,
|
||||
500000000000000000000000000008000000000000000000,
|
||||
100000000000000000000000100000000000000000000000,
|
||||
100000000000100000000000100000000000000000000000,
|
||||
500000000000000000000000000000000000000008000000,
|
||||
000000000000000000000000100000000000000000000000,
|
||||
200000000000200000000000200000000000000000000000,
|
||||
200000000000000000000000000000000000000000000000,
|
||||
100000000000000000000000500000000000000000000000,
|
||||
000008000000000000000000000000000000000000000000,
|
||||
100000000000000000000000100000000000100000000000,
|
||||
100000000000000000000000100000000000100000000000,
|
||||
500000000000000000000000000000000000000000000008,
|
||||
000000000000000000000000200000000000000000000000,
|
||||
200000000000200000000000200000000000000000000000,
|
||||
200000000000000000000000000000000000000000000000,
|
||||
100000000000000000000000500000000000000000000000,
|
||||
000008000000000000000000000000000000000000000000,
|
||||
100000000000000000000000100000000000100000000000,
|
||||
100000000000000000000000100000000000000000000000,
|
||||
500000000000000000000000000000000000000000000008,
|
||||
000000000000000000000000000000000000000000000000,
|
||||
100000000000000000000000200000000000000000000000,
|
||||
100000000000000000000000200000000000000000000000,
|
||||
100000000000000000000000200000000000000000000000,
|
||||
100000000000000000000000200000000000000000000000,
|
||||
100000000000000000000000100000000000000000000000,
|
||||
100000000000100000000000100000000000000000000000,
|
||||
100000000000000000000000100000000000000000000000,
|
||||
100000000000100000000000100000000000000000000000,
|
||||
100000000000000000000000100000000000000000000000,
|
||||
300000000000000000000000100000000000000000000000,
|
||||
300000000000300000000000000000000000000000000000,
|
||||
#GOGOSTART
|
||||
100000000000000000000000100000000000100000000000,
|
||||
100000000000000000000000100000000000100000000000,
|
||||
100000000000000000000000100000000000000000000000,
|
||||
600000000000000000000000000080000000000000000000,
|
||||
100000000000000000000000100000000000100000000000,
|
||||
100000000000000000000000100000000000100000000000,
|
||||
100000000000000000000000100000000000000000000000,
|
||||
600000000000000000000000000080000000000000000000,
|
||||
100000000000000000000000100000000000000000000000,
|
||||
100000000000000000000000200000000000000000000000,
|
||||
100000000000000000000000100000000000000000000000,
|
||||
100000000000000000000000200000000000000000000000,
|
||||
500000000000000000000000000000000000000000000008,
|
||||
000000000000000000000000300000000000000000000000,
|
||||
#GOGOEND
|
||||
,
|
||||
,
|
||||
,
|
||||
,
|
||||
,
|
||||
#END
|
||||
Reference in New Issue
Block a user