tja
This commit is contained in:
386
tja/313.tja
Normal file
386
tja/313.tja
Normal file
@@ -0,0 +1,386 @@
|
||||
//TJADB Project
|
||||
TITLE:Obake no Oshigoto
|
||||
TITLEJA:おばけのお仕事
|
||||
SUBTITLE:--Kasuyakyo feat. Maki Mori
|
||||
BPM:150
|
||||
WAVE:Obake no Oshigoto.ogg
|
||||
OFFSET:-7.901
|
||||
DEMOSTART:48.259
|
||||
|
||||
COURSE:Oni
|
||||
LEVEL:6
|
||||
BALLOON:13
|
||||
SCOREINIT:600
|
||||
SCOREDIFF:130
|
||||
|
||||
|
||||
#START
|
||||
|
||||
|
||||
#MEASURE 1/4
|
||||
4011,
|
||||
#MEASURE 4/4
|
||||
5,
|
||||
,
|
||||
,
|
||||
00008340,//4
|
||||
1110202000202000,
|
||||
1110202000202000,
|
||||
1110202000202000,
|
||||
1110200040404040,
|
||||
10211221,
|
||||
0111,
|
||||
10211221,
|
||||
0111,
|
||||
10211221,
|
||||
0111,
|
||||
10211221,
|
||||
01114440,//16
|
||||
1022202020002020,
|
||||
1002202020202000,
|
||||
1022202020002000,
|
||||
1110222011111000,
|
||||
1022202010002020,
|
||||
1002202010202000,
|
||||
1022202010002020,
|
||||
3333,
|
||||
4440,//25
|
||||
|
||||
#GOGOSTART
|
||||
1110202011102020,
|
||||
12121000,
|
||||
2220111022201110,
|
||||
50000800,
|
||||
1110202011102020,
|
||||
12121000,
|
||||
10101022,
|
||||
02022033,
|
||||
6,
|
||||
0008,
|
||||
1110202000202000,
|
||||
1110202000202000,//37
|
||||
|
||||
#GOGOEND
|
||||
1022202020002020,
|
||||
1002202020202000,
|
||||
1022202020002020,
|
||||
10202001,
|
||||
1022202010002020,
|
||||
1002202010202000,
|
||||
1022202010002020,
|
||||
3333,
|
||||
70000008,
|
||||
40404340,//47
|
||||
|
||||
#GOGOSTART
|
||||
1110202011102020,
|
||||
12121000,
|
||||
2220111022201110,
|
||||
50000800,
|
||||
1110202011102020,
|
||||
12121000,
|
||||
10101022,
|
||||
02022000,//55
|
||||
1110202011102201,
|
||||
1111102020000000,
|
||||
1110222011102220,
|
||||
50000800,
|
||||
1110202010112022,
|
||||
12121000,
|
||||
10101022,
|
||||
02022033,
|
||||
6,
|
||||
0008,
|
||||
1110202000202000,
|
||||
1110202000202000,
|
||||
1120102010202010,
|
||||
1120102010202010,
|
||||
1120102010202010,
|
||||
1110200030303030,//71
|
||||
|
||||
#GOGOEND
|
||||
0000000001112220,
|
||||
0400,
|
||||
|
||||
|
||||
#END
|
||||
|
||||
|
||||
COURSE:Hard
|
||||
LEVEL:4
|
||||
BALLOON:16
|
||||
|
||||
#START
|
||||
#MEASURE 5/4
|
||||
45000,
|
||||
#MEASURE 4/4
|
||||
,
|
||||
,
|
||||
00008440,//4
|
||||
12120220,
|
||||
12120220,
|
||||
12120220,
|
||||
1110200040404040,
|
||||
10222011,
|
||||
0111,
|
||||
10222011,
|
||||
0111,
|
||||
10222011,
|
||||
0111,
|
||||
10222011,
|
||||
5008,//16
|
||||
10022020,
|
||||
10202220,
|
||||
10022020,
|
||||
1110200011102000,
|
||||
10022020,
|
||||
10202220,
|
||||
10022020,
|
||||
3333,
|
||||
4440,//25
|
||||
|
||||
#GOGOSTART
|
||||
11221122,
|
||||
12121000,
|
||||
22112211,
|
||||
50000800,
|
||||
11221122,
|
||||
12121000,
|
||||
10101022,
|
||||
02022033,
|
||||
6,
|
||||
0008,
|
||||
00000220,
|
||||
00000220,//37
|
||||
|
||||
#GOGOEND
|
||||
10022020,
|
||||
10202220,
|
||||
10022020,
|
||||
10202001,
|
||||
10022020,
|
||||
10202220,
|
||||
10022020,
|
||||
3333,
|
||||
7,
|
||||
08,//47
|
||||
|
||||
#GOGOSTART
|
||||
11221122,
|
||||
12121000,
|
||||
22112211,
|
||||
50000800,
|
||||
11221122,
|
||||
12121000,
|
||||
10101022,
|
||||
02022000,//55
|
||||
11221122,
|
||||
1110202020000000,
|
||||
22112211,
|
||||
50000800,
|
||||
11221122,
|
||||
1110202020000000,
|
||||
10101022,
|
||||
02022033,
|
||||
6,
|
||||
0008,
|
||||
00000220,
|
||||
00000220,
|
||||
12121220,
|
||||
12121220,
|
||||
12121220,
|
||||
1110200030303030,//71
|
||||
|
||||
#GOGOEND
|
||||
,
|
||||
0400,
|
||||
,
|
||||
,
|
||||
,
|
||||
#END
|
||||
|
||||
COURSE:Normal
|
||||
LEVEL:5
|
||||
BALLOON:30,15,12,15
|
||||
|
||||
#START
|
||||
#MEASURE 5/4
|
||||
09000,
|
||||
#MEASURE 4/4
|
||||
,
|
||||
,
|
||||
0908,//4
|
||||
00000220,
|
||||
00000220,
|
||||
00000220,
|
||||
00003333,
|
||||
30222000,
|
||||
1111,
|
||||
10222000,
|
||||
1111,
|
||||
10222000,
|
||||
1111,
|
||||
10222000,
|
||||
5008,//16
|
||||
00022020,
|
||||
00202220,
|
||||
00022020,
|
||||
00202220,
|
||||
00022020,
|
||||
00202220,
|
||||
00022020,
|
||||
3333,
|
||||
,//25
|
||||
|
||||
#GOGOSTART
|
||||
11101110,
|
||||
10111000,
|
||||
22202220,
|
||||
50000800,
|
||||
11101110,
|
||||
10111000,
|
||||
20202022,
|
||||
02022000,
|
||||
9,
|
||||
0908,
|
||||
00000220,
|
||||
00000220,//37
|
||||
|
||||
#GOGOEND
|
||||
00022020,
|
||||
00202220,
|
||||
00022020,
|
||||
0220,
|
||||
00022020,
|
||||
00202220,
|
||||
00022020,
|
||||
3333,
|
||||
7,
|
||||
08,//47
|
||||
|
||||
#GOGOSTART
|
||||
11101110,
|
||||
10222000,
|
||||
22202220,
|
||||
50000800,
|
||||
11101110,
|
||||
10222000,
|
||||
20202022,
|
||||
02022000,//55
|
||||
11101110,
|
||||
22222000,
|
||||
11101110,
|
||||
50000800,
|
||||
11101110,
|
||||
22222000,
|
||||
10101022,
|
||||
02022000,
|
||||
9,
|
||||
0908,
|
||||
00000220,
|
||||
00000110,
|
||||
10100220,
|
||||
10100110,
|
||||
10100220,
|
||||
10103333,//71
|
||||
|
||||
#GOGOEND
|
||||
,
|
||||
0400,
|
||||
,
|
||||
,
|
||||
,
|
||||
#END
|
||||
|
||||
COURSE:Easy
|
||||
LEVEL:4
|
||||
BALLOON:25,12,10,12
|
||||
|
||||
#START
|
||||
#MEASURE 5/4
|
||||
09000,
|
||||
#MEASURE 4/4
|
||||
,
|
||||
,
|
||||
0908,//4
|
||||
00000220,
|
||||
00000220,
|
||||
00000220,
|
||||
00003333,
|
||||
0220,
|
||||
1111,
|
||||
0220,
|
||||
1111,
|
||||
0220,
|
||||
1111,
|
||||
0220,
|
||||
5008,//16
|
||||
0202,
|
||||
0222,
|
||||
0202,
|
||||
2222,
|
||||
0202,
|
||||
0222,
|
||||
0202,
|
||||
3333,
|
||||
,//25
|
||||
|
||||
#GOGOSTART
|
||||
1110,
|
||||
1110,
|
||||
22,
|
||||
50000800,
|
||||
1110,
|
||||
1110,
|
||||
22,
|
||||
3330,
|
||||
9,
|
||||
0908,
|
||||
00000220,
|
||||
00000220,//37
|
||||
|
||||
#GOGOEND
|
||||
0202,
|
||||
0222,
|
||||
0202,
|
||||
2220,
|
||||
0202,
|
||||
0222,
|
||||
0202,
|
||||
3333,
|
||||
7,
|
||||
08,//47
|
||||
|
||||
#GOGOSTART
|
||||
1110,
|
||||
1110,
|
||||
22,
|
||||
50000800,
|
||||
1110,
|
||||
1110,
|
||||
22,
|
||||
3330,//55
|
||||
1110,
|
||||
2220,
|
||||
11,
|
||||
50000800,
|
||||
1110,
|
||||
2220,
|
||||
11,
|
||||
3330,
|
||||
9,
|
||||
0908,
|
||||
00000220,
|
||||
00000110,
|
||||
00000220,
|
||||
00000110,
|
||||
00000220,
|
||||
00003333,//71
|
||||
|
||||
#GOGOEND
|
||||
,
|
||||
0400,
|
||||
,
|
||||
,
|
||||
,
|
||||
#END
|
||||
Reference in New Issue
Block a user