This commit is contained in:
2026-03-04 23:59:27 +09:00
parent 6e0312f5b4
commit 4b4e2b8c98
1128 changed files with 668765 additions and 0 deletions

305
tja/314.tja Normal file
View File

@@ -0,0 +1,305 @@
//TJADB Project
TITLE:Odoru Ponpokorin -Old Audio/AC2 Chart-
TITLEJA:おどるポンポコリン
SUBTITLE:--B.B.Queens/Chibi Maruko-chan
SUBTITLEJA:旧音源・AC2譜面 「ちびまる子ちゃん」より
BPM:140
WAVE:Odoru Ponpokorin -Old Audio-.ogg
OFFSET:-1.752
DEMOSTART:41.187
COURSE:Oni
LEVEL:2
BALLOON:
SCOREINIT:
SCOREDIFF:
SCOREMODE:0
#START
0,
10111011,
01011110,
10111000,
0022,
11111111,
11112020,
1111,
10101110,
1111,
10101110, //11
1111,
10101110,
10101110,
11030000,
1110,
11110100,
1110,
11110100, //19
0122,
1122,
500000000000000000000000000000000000000000000008,
00001111,
10221022,
01011110,
10221022,
01011110, //27
10221022,
01011111,
500000000000000000000000000000000008000000000000,
01011111,
10221022,
01011110,
10221022,
0010101010111000, //35
10221000,
01,
500000000000000000000000000000000000000000000008,
0022,
1111,
10101110,
1111,
10101110, //43
1111,
10101110,
10101110,
11030000,
00000220,
11110100,
00000220,
11110100,
0122,
1122,
500000000000000000000000000000000000000000000008,
00001111, //55
10221022,
01011110,
10221022,
01011110,
10221022,
01011111,
500000000000000000000000000000000008000000000000,
01011111,
10221022,
01011110,
10221022,
0010101010111000,
10221000,
01,
5,
000000000008000000000000000000000000000000000000, //71
#END
COURSE:Normal
LEVEL:3
BALLOON:
SCOREINIT:630
SCOREDIFF:150
SCOREMODE:1
#START
0,
10111011,
01011110,
10111000,
0022,
11111111,
11112020,
1111,
10101110,
1111,
10101110, //11
1111,
10101110,
10101110,
11030000,
1110,
11110100,
1110,
11110100, //19
0122,
1122,
500000000000000000000000000000000000000000000008,
00001111,
10221022,
01011110,
10221022,
01011110, //27
10221022,
01011111,
500000000000000000000000000000000008000000000000,
01011111,
10221022,
01011110,
10221022,
0010101010111000, //35
10221000,
01,
500000000000000000000000000000000000000000000008,
0022,
1111,
10101110,
1111,
10101110, //43
1111,
10101110,
10101110,
11030000,
00000220,
11110100,
00000220,
11110100,
0122,
1122,
500000000000000000000000000000000000000000000008,
00001111, //55
10221022,
01011110,
10221022,
01011110,
10221022,
01011111,
500000000000000000000000000000000008000000000000,
01011111,
10221022,
01011110,
10221022,
0010101010111000,
10221000,
01,
5,
000000000008000000000000000000000000000000000000, //71
#END
COURSE:Easy
LEVEL:3
BALLOON:
SCOREINIT:790
SCOREDIFF:220
SCOREMODE:1
#START
0,
0101,
0101,
0101,
0101,
0101,
0122, //7
0111,
0111,
0111,
0112,
0111,
0111,
0111,
3,
0110,
0202,
0110,
0202,
0101,
0111,
500000000000000000000000000000000008000000000000,
2, //23
10111011,
0101,
10111011,
0101,
10111011,
0101,
500000000000000000000000000000000008000000000000,
0022,
10111011,
0101,
10111011,
00201110,
10111000,
0111,
500000000000000000000000000000000000000000000008,
0022, //39
0111,
0111,
0111,
0112,
0111,
0111,
0111,
3,
0110,
0202,
0110,
0202,
0101,
0111,
500000000000000000000000000000000008000000000000,
2, //55
10111011,
0101,
10111011,
0101,
10111011,
0101,
500000000000000000000000000000000008000000000000,
0022,
10111011,
0101,
10111011,
00201110,
10111000,
0111,
5,
000000000008000000000000000000000000000000000000, //71
#END