This commit is contained in:
2026-03-04 23:59:27 +09:00
parent 6e0312f5b4
commit 4b4e2b8c98
1128 changed files with 668765 additions and 0 deletions

723
tja/324.tja Normal file
View File

@@ -0,0 +1,723 @@
//TJADB Project
TITLE:Phantom Rider
TITLEJA:Phantom Rider
SUBTITLE:--Rio Hamamoto
SUBTITLEJA:濱本理央(BNSI)
BPM:269.12
WAVE:Phantom Rider.ogg
OFFSET:-2.003
DEMOSTART:70.053
COURSE:Edit
LEVEL:9
BALLOON:15,15,15
SCOREINIT:440
SCOREDIFF:110
#START
#SCROLL 0.5
#MEASURE 8/4
11000000,
#BPMCHANGE 266.89
11000000,
#BPMCHANGE 267.93
11000000,
#BPMCHANGE 268.93
110000
#SCROLL 2
44,//4
#GOGOSTART
#BPMCHANGE 268
#SCROLL 0.6
1010110101102020,
#SCROLL 0.7
1010110101102020,
#SCROLL 0.8
1010110101102020,
#SCROLL 0.9
1010110101102020,
#SCROLL 1
#MEASURE 4/4
1010201010201110,
0020111020101000,
1010201010201110,
02111120,
1010201010201110,
0020111020101000,
1010201010201110,
02111120,//16
#GOGOEND
#MEASURE 8/4
#SCROLL 0.6
1010110101102020,
#SCROLL 0.7
1010110101102020,
#SCROLL 0.8
1010110101102020,
#SCROLL 0.9
1010110101102020,
#SCROLL 1
#MEASURE 4/4
1010201010201110,
0020111020101000,
1010201010201110,
02111120,
1010201010201110,
0020111020101000,
1010201010201110,
02111120,//28
#GOGOSTART
#SCROLL 1.5
#MEASURE 8/4
7000000008000000,
#SCROLL 2
500000000000000008000000
#SCROLL 3
500000000000000008000000,//31
#GOGOEND
#SCROLL 0.5
1010110101100000,
10101101011000
#SCROLL 2
40,
#SCROLL 0.5
0010110101100000,
1100111101104000,
10012101,
01112220,
10012101,
01112220,
1011201020102210,
1110201110201210,
1011201020102210,
1110201110201210,
1202101120102210,
1202102101202210,
1202101120102210,
1202102101202000,
#SCROLL 0.75
1002021010202210,
10222010002010001000221010002000,
1002021010202210,
10000020002010002220102220102020,
1002021010202210,
10222010002010001000221010002000,
1002021010202210,
20100020101020101020111020001000,
20100020101020111020111020102000,
20100020101020101020111020001000,
2101202101202020,//58
#GOGOSTART
#SCROLL 1.5
#MEASURE 8/4
7000000008000000,
#SCROLL 2
500000000000000008000000
#SCROLL 3
500000000000000008000000,//61
#GOGOEND
#SCROLL 0.5
1010110101100000,
10101101011000
#SCROLL 2
40,
#SCROLL 0.5
0010110101100000,
10100000101010100010100010221022,
1010110101100000,
1010110101104000,
10201120102210200020112010201120,
10201120102210200000000020000000,
0222,
0202,
0222,
0202,
1001001000002000,
10000010000010000000011120000000,
1001001000002011,
100000000100000000100000
100010001000200000000000,
1001001000002010,
10000010000010000000011120001000,
1001001000002011,
100000000100000000100000
100010001000200000100000,
20202020101010102220101022101010,
20202020101010102220101022101010,
20202020101010102210101022101010,
200000100000200000100000200200100000200200100000200000002000000020000000100000001000000010000000,
7008,
#MEASURE 16/4
,//87
#GOGOSTART
#MEASURE 4/4
#SCROLL 1
10101101,
01011011,
01011010,
10101012,
#SCROLL 1.1
01011010,
10110101,
01011010,
121212,
#SCROLL 1.25
10101101,
01011011,
01011010,
10101012,
#SCROLL 1.5
01011010,
10110101,
122122102020,
121212,//103
#GOGOEND
1,
#END
COURSE:Oni
LEVEL:8
BALLOON:8,15,7,7,15,7,7,15
SCOREINIT:470
SCOREDIFF:110
#START
#MEASURE 8/4
#SCROLL 0.5
1010110101100000,
#BPMCHANGE 266.89
1010110101100000,
#BPMCHANGE 267.93
1010110101100000,
#BPMCHANGE 268.93
11700080,//4
#GOGOSTART
#BPMCHANGE 268
1010110101101120,
1010110101101210,
1010110101101120,
1010110101101210,
1111201101102110,
1111201201201210,
1111201101102110,
1111201201201210,//12
#GOGOEND
1010110101101210,
1010110101102110,
1010110101101210,
1010110101102110,
1111201101102110,
1111201201201210,
1111201101102110,
1111201201201210,//20
#GOGOSTART
7008,
#SCROLL 0.75
78
#SCROLL 1
78,//22
#GOGOEND
#SCROLL 0.5
1010110101100000,
1010110101100040,
0010110101100000,
1101111101104000,
10102100,
12221222,
10102100,
12221222,
1010201120102210,
1020202012221020,
1010201120102210,
1020202012221021,
1201102012011021,
1201102012011021,
1202102012021020,
1020202012221000,
1002021010020210,
1002021010201120,
1002021010020210,
1002021011122211,
1002021010020210,
1002021010201120,
1002021010202100,
1202101202112010,
1202102112112020,
1202101202112010,
1202102112112020,//49
#GOGOSTART
7008,
#SCROLL 0.75
78
#SCROLL 1
78,//51
#SCROLL 0.5
#GOGOEND
1010110101100000,
1010110101100040,
0010110101100000,
1101111101100000,
1010110102101210,
1010110102102120,
1010120102101210,
1010120100002000,
0202,
2202,
2202,
2202,
1001001000002000,
1001001000002020,
1001001000002022,
100000000100000000100000100010001000200000000000,
1001001000002000,
1001001000002020,
1001001000002022,
100000000100000000100000100010001000200000000000,
2011201120112110,
2011201120122210,
2011201120112110,
2111201121101222,
7008,
,
#BARLINEOFF
,//78
#BARLINEON
#GOGOSTART
#SCROLL 0.75
1010220101022011,
0201102010101012,
0102201010220101,
000100000200200000100000100020002000100020002000,
1010220101022011,
0201102010101012,
0102201010220120,
111111101010201010201020,//86
#GOGOEND
1,
#END
COURSE:Hard
LEVEL:7
BALLOON:5,9,4,2,9,4,2,10,10,11,12,9
SCOREINIT:540
SCOREDIFF:115
#START
#SCROLL 0.5
#MEASURE 8/4
1010100101100000,
#BPMCHANGE 266.89
1010100101100000,
#BPMCHANGE 267.93
1010100101100000,
#BPMCHANGE 268.93
11700080,
#GOGOSTART
#BPMCHANGE 268
1010100101101000,
1010100101102000,
1010100101101000,
1010100101102000,
1110100101101000,
1110100101102000,
1110100101101000,
1110100101102000,
#GOGOEND
1010100101101010,
1010100101101010,
1010100101101010,
1010100101101010,
1110100101101000,
1110100101102020,
1110100101101000,
1110100101102020,//20
#GOGOSTART
70000080,
#SCROLL 0.75
7008
#SCROLL 1
7008,//22
#GOGOEND
#SCROLL 0.5
1010100101100000,
1010100101100040,
0010110101100000,
1101101101104000,
10112000,
11112020,
10112000,
11112020,
11201120,
1010101010222000,
11201120,
1010101010222000,
11201220,
1010101010222000,
11201220,
1010101010222000,
1011011010001000,
1011011010102000,
1011011010001000,
1011011010222000,
1011011010001000,
1011011010102000,
1011011010001000,
1101101101102000,
1101101101102000,
1101101101102000,
1102201102202000,//49
#GOGOSTART
70000080,
#SCROLL 0.75
7008
#SCROLL 1
7008,//51
#GOGOEND
#SCROLL 0.5
1010100101100000,
1010100101100040,
0010110101100000,
1101101101100000,
1010100102200000,
1010100102200000,
1010200102200000,
1010200100002000,
0202,
2202,
2202,
2202,
1001001000002000,
1001001000102000,
1001001000002000,
1001001000102000,
1001001000002000,
1001001000102000,
1001001000002000,
1001001000102000,
1110111010102000,
1110111010102000,
1110111010102000,
1110111011102220,
7008,
,
#BARLINEOFF
,//78
#BARLINEON
#GOGOSTART
1010110101011070,
0000000000000008,
0101101010110107,
00000008,
1010110101011070,
0000000000000008,
0101101010110105,
000000000008000070000000000000000000000000000000,//86
#GOGOEND
8,
#END
COURSE:Normal
LEVEL:6
BALLOON:4,6,2,2,6,2,2,6,8,8,8,5
SCOREINIT:710
SCOREDIFF:180
#START
#MEASURE 8/4
#SCROLL 0.5
1100,
#BPMCHANGE 266.89
1100,
#BPMCHANGE 267.93
1100,
#BPMCHANGE 268.93
1708,
#GOGOSTART
#BPMCHANGE 268
10100120,
10100120,
10100120,
10100120,
11100120,
11100220,
11100120,
11100220,
#GOGOEND
11101010,
11101010,
11101010,
11101010,
11100120,
11100220,
11100120,
11100220,//20
#GOGOSTART
7008,
#SCROLL 0.75
7008
#SCROLL 1
7008,//22
#GOGOEND
#SCROLL 0.5
3,
30000004,
03000000,
3304,
1120,
10112020,
1120,
10112020,
10201120,
10201120,
10201120,
10222020,
10201120,
10201120,
10201120,
10222020,
10011001,
10011020,
10011001,
10011220,
10011001,
10011020,
10011000,
500000000000000000000008000000000000200000000000,
500000000000000000000008000000000000200000000000,
500000000000000000000008000000000000200000000000,
500000000000000000000008000000000000200000000000,//49
#GOGOSTART
7008,
#SCROLL 0.75
7008
#SCROLL 1
7008,//51
#SCROLL 0.5
#GOGOEND
3,
30000004,
03000000,
3300,
3,
3,
3300,
3302,
0202,
2202,
2202,
2200,
10000120,
10000220,
10000120,
10000220,
10000120,
10000220,
10000120,
10000220,
10101120,
10102220,
10101120,
11102220,
7008,
,
#BARLINEOFF
,//78
#BARLINEON
#GOGOSTART
1010100101010070,
0000000000000008,
0101010010101007,
00000008,
1010100101010070,
0000000000000008,
0101010010101005,
000000000008000070000000000000000000000000000000,//86
#GOGOEND
8,
#END
COURSE:Easy
LEVEL:4
BALLOON:3,5,2,2,5,2,2,5,6,6,6,4
SCOREINIT:530
SCOREDIFF:118
#START
#MEASURE 8/4
#SCROLL 0.5
1100,
#BPMCHANGE 266.89
1100,
#BPMCHANGE 267.93
1100,
#BPMCHANGE 268.93
1708,
#GOGOSTART
#BPMCHANGE 268
1110,
1110,
1110,
1110,
1102,
1102,
1102,
1102,//12
#GOGOEND
1110,
1110,
1110,
1110,
1102,
1102,
1102,
1102,//20
#GOGOSTART
7008,
#SCROLL 0.75
7008
#SCROLL 1
7008,//22
#GOGOEND
#SCROLL 0.5
3,
30000004,
03000000,
3304,
1110,
1122,
1110,
1122,
11,
1110,
11,
1110,
12,
1110,
12,
1110,
11,
1011,
11,
10001110,
11,
1011,
11,
500000000000000000000000000000000008000000000000,
500000000000000000000000000000000008000000000000,
500000000000000000000000000000000008000000000000,
500000000000000000000000000000000008000000000000,//49
#GOGOSTART
7008,
#SCROLL 0.75
7008
#SCROLL 1
7008,//51
#SCROLL 0.5
#GOGOEND
3,
30000004,
03000000,
3300,
3,
3,
3300,
3302,
0202,
0202,
0202,
0202,
1002,
1002,
1002,
10001110,
1002,
1002,
1002,
10001110,
1112,
1112,
1112,
10101110,
7008,
,
#BARLINEOFF
,//78
#BARLINEON
#GOGOSTART
1010100101010070,
0000000000000008,
0101010010101007,
00000008,
1010100101010070,
0000000000000008,
0101010010101005,
000000000008000070000000000000000000000000000000,//86
#GOGOEND
8,
,
,
#END