This commit is contained in:
2026-03-04 23:59:27 +09:00
parent 6e0312f5b4
commit 4b4e2b8c98
1128 changed files with 668765 additions and 0 deletions

702
tja/331.tja Normal file
View File

@@ -0,0 +1,702 @@
//TJADB Project
TITLE:Shin Zombie
TITLEJA:シン・ゾンビ
SUBTITLE:--GLAY
SUBTITLEJA:GLAY×太鼓の達人タイアップソング
BPM:168
WAVE:Shin Zombie.ogg
OFFSET:-2.009
DEMOSTART:48.629
//shinuchi: 11800/4950/2220/1250
COURSE:Oni
LEVEL:9
BALLOON:
SCOREINIT:410,1260
SCOREDIFF:100
#START
#MEASURE 5/16
#SCROLL 1.07
3,
#MEASURE 4/4
#BPMCHANGE 180
#SCROLL 1
1010201010221020,
1020101020112211,
2010102210201020,
1010201122112210,
1010201010221020,
1020101020112211,
2010102210201020,
1010201122121000, //9
1110201110201110,
2011102011212020,
1120201120201120,
2011202012121010,
2220102220102220,
1022201022121010,
2210102210102210,
2010221020102222,
1010201020112020,
2010201202212210,
#GOGOSTART
3000200210102011,
2200
#GOGOEND
000000112000, //21
1000200210102011,
2210201000112010,
1000200210102011,
#MEASURE 2/4
20112220,
#MEASURE 4/4
1000200210102011,
2210201020112010,
1000200210102011,
#MEASURE 2/4
20112220, //29
#MEASURE 4/4
1000200211102011,
2210201020112010,
0010221010102011,
#MEASURE 2/4
20112222,
#MEASURE 4/4
1000200211102011,
2210201020112010,
0010200211102030,
0030003000112000, //37
#GOGOSTART
1010200210102011,
1011201112102000,
1010200210102011,
2010201022102222,
1010200210102011,
1011201112102000,
1010202210102011,
2010201122102211, //45
1010200210102011,
1011202212102000,
1010200210102011,
2010221011102222,
1011200210102011,
1011202212102000,
1010202210102011,
2212102212112211, //53
#BPMCHANGE 180.69
#SCROLL 0.99
0010102220102010,
2211202010102220,
#BPMCHANGE 178.64
#SCROLL 1
10201120,
#BPMCHANGE 180
122111222111,
#BPMCHANGE 182.18
#SCROLL 0.98
0010102220102011,
2211202210102220, //59
#GOGOEND
#MEASURE 8/4
#BPMCHANGE 338.19
#SCROLL 0.53
30001022
#BPMCHANGE 360
#SCROLL 0.5
00200020,
1000100022112020,
#MEASURE 4/4
#BPMCHANGE 364.76
5,
#BARLINEOFF
000000000008000000000000000000000000000000000000, //63
#BRANCHSTART r,12,12
#N
#BARLINEON
#MEASURE 8/4
#BPMCHANGE 358.34
500000000000000000000000000000000000000000000000000000000008000000000000000000000000000000000000,
#BPMCHANGE 360
#GOGOSTART
1010201010221020,
1020201020112012,
1021202211221022,
1212101122122222,
1000221110202212,
1020221210202212,
2020122112211221,
1000202011102000, //n72
1212121210222010,
2121212120111020,
1010200020102011,
2211201122112000,
1022102211020202,
1022020120102220,
1000100010222020,
1022202022112212,
0010102220102010,
2211202210403040,
#GOGOEND
#MEASURE 16/4
0, //n83
#E
#BARLINEON
#MEASURE 8/4
#BPMCHANGE 358.34
500000000000000000000000000000000000000000000000000000000008000000000000000000000000000000000000,
#BPMCHANGE 360
#GOGOSTART
1010201010221020,
1020201020112012,
1021202211221022,
1212101122122222,
1000221110202212,
1020221210202212,
2020122112211221,
1000202011102000, //e72
1212121210222010,
2121212120111020,
1010200020102011,
2211201122112000,
1022102211020202,
1022020120102220,
1000100010222020,
1022202022112212,
0010102220102010,
2211202210403040,
#GOGOEND
#MEASURE 16/4
0, //e83
#M
#BARLINEON
#MEASURE 8/4
#BPMCHANGE 358.34
500000000000000000000000000000000000000000000000000000000008000000000000000000000000000000000000,
#BPMCHANGE 360
#GOGOSTART
1010201010221020,
1020201020112212,
1221202211221122,
10201020101010102020102020222222,
1000221110202212,
1122221211222212,
22222111122221111222221111222211,
1000202011102000, //m72
1212121210222010,
2121212120111020,
1010200020102011,
2211201122112000,
1022102211020202,
1022020120102220,
1000100010222020,
1022202022112212,
0010102220102010,
2211202210403040,
#GOGOEND
#MEASURE 16/4
0, //m83
#BRANCHEND
#END
COURSE:Hard
LEVEL:6
BALLOON:11,11,19
SCOREINIT:560,2420
SCOREDIFF:135
#START
#BARLINEOFF
#MEASURE 5/16
#SCROLL 1.07
0,
#BARLINEON
#MEASURE 4/4
#BPMCHANGE 180
#SCROLL 1
11221011,
22101122,
10112210,
11221110,
11221011,
22101122,
10112210,
11221110, //9
10210210,
2010002011101000,
10210210,
2010002011101000,
20120120,
1020001022202000,
10210212,
10121012,
11212127,
0008,
#GOGOSTART
3,
00
#GOGOEND
000120, //21
10201120,
11210121,
10201121,
#MEASURE 2/4
0122,
#MEASURE 4/4
10201120,
11210121,
10201121,
#MEASURE 2/4
0122, //29
#MEASURE 4/4
10201120,
11210121,
10201122,
#MEASURE 2/4
0221,
#MEASURE 4/4
10201120,
11210121,
10201123,
03030120, //37
#GOGOSTART
1000200011102000,
100000100000200000500000000000000000000008000000,
00201120,
10221120,
1000200011102000,
100000100000200000500000000000000000000008000000,
00221120,
10212121, //45
1000200011102000,
100000100000200000500000000000000000000008000000,
00201120,
10221120,
1010200011102000,
100000100000200000500000000000000000000008000000,
00221122,
70000008, //53
#BPMCHANGE 180.69
#SCROLL 0.99
03330304,
03333030,
#BPMCHANGE 178.64
#SCROLL 1
6,
#BPMCHANGE 180
000000000000000008000000000000000000000000000000,
#BPMCHANGE 182.18
#SCROLL 0.98
03330304,
03333040, //59
#GOGOEND
#MEASURE 8/4
#BPMCHANGE 338.19
#SCROLL 0.53
7
#BPMCHANGE 360
#SCROLL 0.5
0,
00000000000000080000000000000000,
#MEASURE 4/4
#BPMCHANGE 364.76
0,
#BARLINEOFF
0,
#BARLINEON
#MEASURE 8/4
#BPMCHANGE 358.34
0, //64
#BPMCHANGE 360
#GOGOSTART
11221011,
22101122,
10112210,
11221110,
11221011,
22101122,
10112210,
11221110, //72
11221111,
22111122,
11112211,
11221110,
11221111,
22111122,
11112211,
11221111,
06000000,
000000000000000000000000000000000000000000000000000000000000000000000000000000000000000000000008,
#GOGOEND
#MEASURE 16/4
0, //83
#END
COURSE:Normal
LEVEL:4
BALLOON:6,15,6,6,6,7
SCOREINIT:870,5750
SCOREDIFF:250
#START
#BARLINEOFF
#MEASURE 5/16
#SCROLL 1.07
0,
#BARLINEON
#MEASURE 4/4
#BPMCHANGE 180
#SCROLL 1
11,
1011,
11,
1011,
11,
1011,
11,
7008, //9
11,
10001110,
11,
10002220,
22,
20001110,
11,
1111,
9,
09,
#GOGOSTART
8,
0
#GOGOEND
000, //21
10001100,
22,
10001100,
#MEASURE 2/4
2,
#MEASURE 4/4
10001100,
22,
10001100,
#MEASURE 2/4
2, //29
#MEASURE 4/4
10001100,
2220,
10001100,
#MEASURE 2/4
2,
#MEASURE 4/4
10001100,
2220,
10001107,
00000800, //37
#GOGOSTART
10001011,
500000000000000000000000000000000000000008000000,
00101110,
22,
10001011,
500000000000000000000000000000000000000008000000,
00111010,
22, //45
10001011,
500000000000000000000000000000000000000008000000,
00101110,
22,
10101011,
500000000000000000000000000000000000000008000000,
00111010,
7008, //53
#BPMCHANGE 180.69
#SCROLL 0.99
03330303,
03303000,
#BPMCHANGE 178.64
#SCROLL 1
6,
#BPMCHANGE 180
000000000000000008000000000000000000000000000000,
#BPMCHANGE 182.18
#SCROLL 0.98
03330303,
03303040, //59
#GOGOEND
#MEASURE 8/4
#BPMCHANGE 338.19
#SCROLL 0.53
3
#BPMCHANGE 360
#SCROLL 0.5
0,
0,
#MEASURE 4/4
#BPMCHANGE 364.76
0,
#BARLINEOFF
0,
#BARLINEON
#MEASURE 8/4
#BPMCHANGE 358.34
0, //64
#BPMCHANGE 360
#GOGOSTART
11,
1011,
11,
1022,
22,
2011,
11,
7008, //72
11,
10001110,
11,
10002220,
22,
20001110,
11,
70000008,
06000000,
000000000000000000000000000000000000000000000000000000000000000000000000000000000000000000000008,
#GOGOEND
#MEASURE 16/4
0, //83
#END
COURSE:Easy
LEVEL:3
BALLOON:9,12,8,9,11
SCOREINIT:1290,12520
SCOREDIFF:765
#START
#BARLINEOFF
#MEASURE 5/16
#SCROLL 1.07
0,
#BARLINEON
#MEASURE 4/4
#BPMCHANGE 180
#SCROLL 1
1,
11,
1,
11,
1,
11,
7,
08, //9
1,
11,
1,
11,
1,
11,
1,
22,
9,
09,
#GOGOSTART
8,
0
#GOGOEND
000, //21
1,
11,
1,
#MEASURE 2/4
1,
#MEASURE 4/4
1,
11,
1,
#MEASURE 2/4
1, //29
#MEASURE 4/4
1,
11,
1,
#MEASURE 2/4
1,
#MEASURE 4/4
1,
11,
0700,
08, //37
#GOGOSTART
11,
500000000000000000000000000008000000000000000000,
11,
1,
11,
500000000000000000000000000008000000000000000000,
11,
1, //45
22,
500000000000000000000000000008000000000000000000,
11,
1,
22,
500000000000000000000000000008000000000000000000,
11,
1, //53
#BPMCHANGE 180.69
#SCROLL 0.99
05000000,
000000000000000008000000000000000000000000000000,
#BPMCHANGE 178.64
#SCROLL 1
1,
#BPMCHANGE 180
0,
#BPMCHANGE 182.18
#SCROLL 0.98
06000000,
000000000000000008000000000000000000000000000000, //59
#GOGOEND
#MEASURE 8/4
#BPMCHANGE 338.19
#SCROLL 0.53
3
#BPMCHANGE 360
#SCROLL 0.5
0,
0,
#MEASURE 4/4
#BPMCHANGE 364.76
0,
#BARLINEOFF
0,
#BARLINEON
#MEASURE 8/4
#BPMCHANGE 358.24
0, //64
#BPMCHANGE 360
#GOGOSTART
1,
11,
1,
22,
2,
11,
7,
08, //72
1,
11,
1,
22,
2,
11,
7,
0008,
06000000,
000000000000000000000000000000000000000000000000000000000000000000000000000000000000000000000008,
#GOGOEND
#MEASURE 16/4
0, //83
#END