tja
This commit is contained in:
573
tja/335.tja
Normal file
573
tja/335.tja
Normal file
@@ -0,0 +1,573 @@
|
||||
//TJADB Project
|
||||
TITLE:Purple Rose Fusion
|
||||
TITLEJA:Purple Rose Fusion
|
||||
SUBTITLE:--Tatsh a.k.a. Zeami feat. Ayane
|
||||
BPM:185
|
||||
WAVE:Purple Rose Fusion.ogg
|
||||
OFFSET:-11.137
|
||||
DEMOSTART:26.691
|
||||
|
||||
COURSE:Oni
|
||||
LEVEL:10
|
||||
BALLOON:15
|
||||
SCOREINIT:340
|
||||
SCOREDIFF:90
|
||||
|
||||
|
||||
#START
|
||||
|
||||
|
||||
3111,
|
||||
3111,
|
||||
3111,
|
||||
3,
|
||||
1010201010201120,
|
||||
2010102010102110,
|
||||
1020201020201220,
|
||||
2010221020112110,
|
||||
1010201010201120,
|
||||
2010102010102110,
|
||||
1020201020201220,
|
||||
2010221022112110,
|
||||
1010111010100010,
|
||||
01010101,
|
||||
1110101110100010,
|
||||
1110101011101000,
|
||||
2020222020200020,
|
||||
02020202,
|
||||
2220202220200020,
|
||||
2220202022202000,
|
||||
1010222010100020,
|
||||
1110202011102000,
|
||||
1010222010100020,
|
||||
1110202011102000,
|
||||
3000000020202020,
|
||||
0212,
|
||||
30040040,
|
||||
1212,
|
||||
12121212,
|
||||
#MEASURE 6/4
|
||||
100100100100200200200200100100200200100100200200100100200200102010201020,
|
||||
#MEASURE 4/4
|
||||
12,
|
||||
#BARLINEOFF
|
||||
#SCROLL 0.92
|
||||
02,
|
||||
#SCROLL 0.84
|
||||
02,
|
||||
#SCROLL 0.76
|
||||
02,
|
||||
#SCROLL 0.68
|
||||
02,
|
||||
#SCROLL 0.6
|
||||
02,
|
||||
#SCROLL 0.52
|
||||
00002005,
|
||||
000000000000000000000000000000000000000000000008,
|
||||
,
|
||||
#BARLINEON
|
||||
#MEASURE 4/4
|
||||
#SCROLL 1
|
||||
1020112010201120,
|
||||
1020121020121120,
|
||||
1020112010201120,
|
||||
1020121020121120,
|
||||
1010201021102012,
|
||||
1010201021102012,
|
||||
1020201022102012,
|
||||
1020201022102012,
|
||||
1120102101021010,
|
||||
1220202102021012,
|
||||
1120102101021010,
|
||||
1220202102021010,
|
||||
2010221021012010,
|
||||
2010221021012010,
|
||||
1221221021120120,
|
||||
2101202102112000,
|
||||
|
||||
#GOGOSTART
|
||||
1101201011112011,
|
||||
2101201111202010,
|
||||
1101201011112011,
|
||||
2101201111202010,
|
||||
1101201011112011,
|
||||
2101201111202010,
|
||||
2101221021012210,
|
||||
2211221122112221,
|
||||
1101201011212011,
|
||||
2101201111202010,
|
||||
1101201011212011,
|
||||
2101201111202010,
|
||||
2011201020112010,
|
||||
2210201022102010,
|
||||
2211102210101112,
|
||||
2211102210102211,
|
||||
|
||||
#GOGOEND
|
||||
10002010,
|
||||
10020010,
|
||||
50000000,
|
||||
000000000000000000000000000000000008000000000000,
|
||||
7,
|
||||
0008,
|
||||
|
||||
#GOGOSTART
|
||||
#BPMCHANGE 250
|
||||
3010201010201010,
|
||||
4010102010102010,
|
||||
3010201010201010,
|
||||
4010102010102020,
|
||||
3010201010201010,
|
||||
4010102010102010,
|
||||
3010201010201010,
|
||||
4010102010102020,
|
||||
3010201010201110,
|
||||
4010102010102220,
|
||||
3010201010201110,
|
||||
4010102010102220,
|
||||
3010201010201120,
|
||||
4010102020102210,
|
||||
3010201010201120,
|
||||
4010102020102210,
|
||||
1110201110201110,
|
||||
2210102210102010,
|
||||
1110201110201110,
|
||||
2210102210102010,
|
||||
1110201210201110,
|
||||
2210102210102110,
|
||||
1110201210201110,
|
||||
2210102210102110,
|
||||
3011201210201120,
|
||||
3011201210201120,
|
||||
1122112011221120,
|
||||
1112221122121212,
|
||||
|
||||
#GOGOEND
|
||||
|
||||
|
||||
#END
|
||||
|
||||
|
||||
COURSE:Hard
|
||||
LEVEL:8
|
||||
BALLOON:15
|
||||
SCOREINIT:400
|
||||
SCOREDIFF:90
|
||||
|
||||
|
||||
#START
|
||||
|
||||
|
||||
3111,
|
||||
3111,
|
||||
3111,
|
||||
3,
|
||||
11211211,
|
||||
21121120,
|
||||
11211211,
|
||||
2010102010111000,
|
||||
11211211,
|
||||
21121120,
|
||||
11211211,
|
||||
2010102010111000,
|
||||
11101101,
|
||||
01010101,
|
||||
1000101110000010,
|
||||
1000101110000000,
|
||||
22202202,
|
||||
02020202,
|
||||
2000202220000020,
|
||||
2000202220000000,
|
||||
11102201,
|
||||
0020200010222000,
|
||||
11102201,
|
||||
0020200010222000,
|
||||
30002222,
|
||||
0333,
|
||||
30040040,
|
||||
3434,
|
||||
34303430,
|
||||
#MEASURE 6/4
|
||||
300000400000300000400000600000000000000000000000000000000000000000000008,
|
||||
#BARLINEOFF
|
||||
#MEASURE 4/4
|
||||
02,
|
||||
#SCROLL 0.95
|
||||
02,
|
||||
#SCROLL 0.9
|
||||
02,
|
||||
#SCROLL 0.8
|
||||
02,
|
||||
#SCROLL 0.7
|
||||
02,
|
||||
#SCROLL 0.65
|
||||
02,
|
||||
#SCROLL 0.6
|
||||
00002005,
|
||||
000000000000000000000000000000000000000000000008,
|
||||
,
|
||||
#BARLINEON
|
||||
#MEASURE 4/4
|
||||
#SCROLL 1
|
||||
11201120,
|
||||
1010202000111000,
|
||||
11201120,
|
||||
1010202000111000,
|
||||
1110202010102000,
|
||||
1110202010102000,
|
||||
1110202011102000,
|
||||
1110202011102000,
|
||||
11201212,
|
||||
1110200010202000,
|
||||
11201212,
|
||||
1110200010202000,
|
||||
1110200011102020,
|
||||
1110200011102020,
|
||||
1110202011102020,
|
||||
1110222000112000,
|
||||
|
||||
#GOGOSTART
|
||||
1110200011102020,
|
||||
0010201010222000,
|
||||
1110200011102020,
|
||||
0010201020222000,
|
||||
1110200011102020,
|
||||
0010201010222000,
|
||||
30440306,
|
||||
000000000000000000000000000000000008000000000000,
|
||||
1110200011102020,
|
||||
0010201110222000,
|
||||
1110200011102020,
|
||||
0010201110222000,
|
||||
1010201020102011,
|
||||
11212120,
|
||||
1010201020102011,
|
||||
11212120,
|
||||
|
||||
#GOGOEND
|
||||
1021,
|
||||
10020010,
|
||||
5,
|
||||
000000000000000000000000000000000008000000000000,
|
||||
7,
|
||||
0008,
|
||||
|
||||
#GOGOSTART
|
||||
#BPMCHANGE 250
|
||||
11201210,
|
||||
11220120,
|
||||
11201210,
|
||||
11120220,
|
||||
11201210,
|
||||
11220120,
|
||||
11201210,
|
||||
11120220,
|
||||
11211120,
|
||||
11220120,
|
||||
11211120,
|
||||
21120220,
|
||||
11211120,
|
||||
11220120,
|
||||
11211120,
|
||||
21120220,
|
||||
11211211,
|
||||
21210120,
|
||||
11211211,
|
||||
21120220,
|
||||
11211211,
|
||||
21210120,
|
||||
11211211,
|
||||
21120220,
|
||||
11211212,
|
||||
11211212,
|
||||
1110202011102020,
|
||||
1110222011102220,
|
||||
|
||||
#GOGOEND
|
||||
|
||||
|
||||
#END
|
||||
|
||||
|
||||
COURSE:Normal
|
||||
LEVEL:7
|
||||
BALLOON:15
|
||||
SCOREINIT:360
|
||||
SCOREDIFF:90
|
||||
|
||||
|
||||
#START
|
||||
|
||||
|
||||
3111,
|
||||
3111,
|
||||
3111,
|
||||
3,
|
||||
|
||||
10101120,
|
||||
10101220,
|
||||
10101120,
|
||||
10211020,
|
||||
10101120,
|
||||
10101220,
|
||||
10101120,
|
||||
10211020,
|
||||
10101101,
|
||||
01010101,
|
||||
10011001,
|
||||
10011000,
|
||||
20202202,
|
||||
02020202,
|
||||
20022002,
|
||||
20022000,
|
||||
11102201,
|
||||
10220120,
|
||||
11102201,
|
||||
10220120,
|
||||
30002222,
|
||||
0333,
|
||||
30040040,
|
||||
3344,
|
||||
33304440,
|
||||
#MEASURE 6/4
|
||||
300000400000300000400000600000000000000000000000000000000000000000000008,
|
||||
#MEASURE 4/4
|
||||
02,
|
||||
#BARLINEOFF
|
||||
#SCROLL 0.95
|
||||
02,
|
||||
#SCROLL 0.9
|
||||
02,
|
||||
#SCROLL 0.8
|
||||
02,
|
||||
#SCROLL 0.7
|
||||
02,
|
||||
#SCROLL 0.65
|
||||
02,
|
||||
#SCROLL 0.6
|
||||
000020050,
|
||||
000000000000000000000000000000000000000000000008,
|
||||
,
|
||||
#BARLINEON
|
||||
#MEASURE 4/4
|
||||
#SCROLL 1
|
||||
11201120,
|
||||
10210120,
|
||||
11201120,
|
||||
10210120,
|
||||
11202220,
|
||||
11202220,
|
||||
10210120,
|
||||
10210120,
|
||||
11201220,
|
||||
11210220,
|
||||
11201220,
|
||||
11210220,
|
||||
11220120,
|
||||
11220120,
|
||||
11221122,
|
||||
1010202000111000,
|
||||
|
||||
#GOGOSTART
|
||||
11201121,
|
||||
01201120,
|
||||
11201121,
|
||||
01201220,
|
||||
11201121,
|
||||
01201120,
|
||||
5,
|
||||
000000000000000000000008000000000000000000000000,
|
||||
11201121,
|
||||
01210120,
|
||||
11201121,
|
||||
01210120,
|
||||
11202120,
|
||||
11202120,
|
||||
11212120,
|
||||
11212120,
|
||||
|
||||
#GOGOEND
|
||||
1021,
|
||||
10020010,
|
||||
5,
|
||||
000000000000000000000000000000000008000000000000,
|
||||
7,
|
||||
0008,
|
||||
|
||||
#GOGOSTART
|
||||
#BPMCHANGE 250
|
||||
11201110,
|
||||
11202220,
|
||||
11201110,
|
||||
11202220,
|
||||
11201110,
|
||||
11202220,
|
||||
11201110,
|
||||
11202220,
|
||||
11201210,
|
||||
10210120,
|
||||
11201210,
|
||||
10210220,
|
||||
11201210,
|
||||
10210120,
|
||||
11201210,
|
||||
10210220,
|
||||
11201210,
|
||||
21201120,
|
||||
11201210,
|
||||
21201120,
|
||||
11201210,
|
||||
21210120,
|
||||
11201210,
|
||||
21210120,
|
||||
11201220,
|
||||
11201220,
|
||||
11112222,
|
||||
11221122,
|
||||
|
||||
#GOGOEND
|
||||
|
||||
|
||||
#END
|
||||
|
||||
|
||||
COURSE:Easy
|
||||
LEVEL:5
|
||||
BALLOON:15
|
||||
SCOREINIT:250
|
||||
SCOREDIFF:70
|
||||
|
||||
|
||||
#START
|
||||
|
||||
|
||||
3111,
|
||||
3111,
|
||||
3111,
|
||||
3,
|
||||
1122,
|
||||
1122,
|
||||
1122,
|
||||
10111000,
|
||||
1122,
|
||||
1122,
|
||||
1122,
|
||||
10111000,
|
||||
10101001,
|
||||
01010100,
|
||||
10011000,
|
||||
10011000,
|
||||
20202002,
|
||||
02020200,
|
||||
20022000,
|
||||
20022000,
|
||||
11102020,
|
||||
11102020,
|
||||
11102000,
|
||||
11102000,
|
||||
3,
|
||||
,
|
||||
30030030,
|
||||
3344,
|
||||
3344,
|
||||
#MEASURE 6/4
|
||||
300000400000300000400000600000000000000000000000000000000000000000000008,
|
||||
#MEASURE 4/4
|
||||
02,
|
||||
#BARLINEOFF
|
||||
#SCROLL 0.95
|
||||
02,
|
||||
#SCROLL 0.9
|
||||
02,
|
||||
#SCROLL 0.8
|
||||
02,
|
||||
#SCROLL 0.7
|
||||
02,
|
||||
#SCROLL 0.65
|
||||
02,
|
||||
#SCROLL 0.6
|
||||
000020050,
|
||||
000000000000000000000000000000000000000000000008,
|
||||
,
|
||||
#BARLINEON
|
||||
#MEASURE 4/4
|
||||
#SCROLL 1
|
||||
10101110,
|
||||
1120,
|
||||
10101110,
|
||||
1120,
|
||||
10101110,
|
||||
10101110,
|
||||
1122,
|
||||
500000000000000000000008000000000000000000000000,
|
||||
11101010,
|
||||
1122,
|
||||
11101010,
|
||||
1122,
|
||||
10101110,
|
||||
10101110,
|
||||
5,
|
||||
000000000000000000000008000000000000000000000000,
|
||||
|
||||
#GOGOSTART
|
||||
10101110,
|
||||
11102000,
|
||||
10101110,
|
||||
11102000,
|
||||
10101110,
|
||||
11101110,
|
||||
5,
|
||||
000000000000000000000008000000000000000000000000,
|
||||
10101110,
|
||||
10222000,
|
||||
10101110,
|
||||
10222000,
|
||||
10101011,
|
||||
1110,
|
||||
10101110,
|
||||
500000000000000000000000000000000008000000000000,
|
||||
|
||||
#GOGOEND
|
||||
1021,
|
||||
10020010,
|
||||
5,
|
||||
000000000000000000000000000000000008000000000000,
|
||||
7,
|
||||
0008,
|
||||
|
||||
#GOGOSTART
|
||||
#BPMCHANGE 250
|
||||
1111,
|
||||
2200,
|
||||
1111,
|
||||
2200,
|
||||
1111,
|
||||
2200,
|
||||
1111,
|
||||
2200,
|
||||
10101110,
|
||||
2200,
|
||||
10101110,
|
||||
2200,
|
||||
10101110,
|
||||
2200,
|
||||
10101110,
|
||||
2200,
|
||||
10101110,
|
||||
2220,
|
||||
10101110,
|
||||
2220,
|
||||
10101110,
|
||||
0222,
|
||||
10101110,
|
||||
0222,
|
||||
10101110,
|
||||
10101110,
|
||||
11101110,
|
||||
11111111,
|
||||
|
||||
#GOGOEND
|
||||
|
||||
|
||||
#END
|
||||
|
||||
Reference in New Issue
Block a user