tja
This commit is contained in:
825
tja/338.tja
Normal file
825
tja/338.tja
Normal file
@@ -0,0 +1,825 @@
|
||||
//TJADB Project
|
||||
TITLE:Kita Saitama 2000
|
||||
TITLEJA:きたさいたま2000
|
||||
SUBTITLE:--Linda AI-CUE
|
||||
BPM:222
|
||||
WAVE:Kita Saitama 2000.ogg
|
||||
OFFSET:-1.406
|
||||
DEMOSTART:27.622
|
||||
|
||||
COURSE:Oni
|
||||
LEVEL:10
|
||||
SCOREINIT:450
|
||||
SCOREDIFF:110
|
||||
|
||||
|
||||
#START
|
||||
|
||||
|
||||
2,
|
||||
21,
|
||||
2,
|
||||
21,
|
||||
2,
|
||||
21,
|
||||
2,
|
||||
21,
|
||||
1,
|
||||
1,
|
||||
11,
|
||||
11,
|
||||
1111,
|
||||
1111,
|
||||
11111111,
|
||||
1111111111111110,
|
||||
30003303,
|
||||
#MEASURE 3/4
|
||||
101110111000,
|
||||
#MEASURE 4/4
|
||||
10101111,
|
||||
11111111,
|
||||
#MEASURE 3/4
|
||||
101011101000,
|
||||
101011101000,
|
||||
#MEASURE 4/4
|
||||
1011101011101000,
|
||||
1010101011101010,
|
||||
1111211111112111,
|
||||
1020102010201022,
|
||||
#MEASURE 3/4
|
||||
121130,
|
||||
#MEASURE 4/4
|
||||
1011102010201110,
|
||||
1022100020222020,
|
||||
1020102010201022,
|
||||
#MEASURE 3/4
|
||||
121130,
|
||||
#MEASURE 4/4
|
||||
5,
|
||||
#MEASURE 5/4
|
||||
000000000000000008000000200000200200200000400000100100100100,
|
||||
#MEASURE 4/4
|
||||
1020102010201022,
|
||||
#MEASURE 3/4
|
||||
121130,
|
||||
#MEASURE 4/4
|
||||
1011102010201110,
|
||||
1022100020222020,
|
||||
1020102010201022,
|
||||
#MEASURE 3/4
|
||||
121130,
|
||||
#MEASURE 4/4
|
||||
5,
|
||||
#MEASURE 5/4
|
||||
000000000000000008000000200000200200200000400000100100100100,
|
||||
#MEASURE 4/4
|
||||
1020002000202220,
|
||||
1020002000202220,
|
||||
1020002022200020,
|
||||
1020002022022220,
|
||||
1020002022200020,
|
||||
1020002022200020,
|
||||
1020222000200020,
|
||||
#MEASURE 3/4
|
||||
102022022220,
|
||||
#MEASURE 4/4
|
||||
1020002022201020,
|
||||
#MEASURE 3/4
|
||||
002000102220,
|
||||
#MEASURE 4/4
|
||||
1020002022201020,
|
||||
0020002011102220,
|
||||
1020002022201020,
|
||||
#MEASURE 3/4
|
||||
002000102220,
|
||||
#MEASURE 4/4
|
||||
1020002022201020,
|
||||
#MEASURE 3/4
|
||||
002000201111,//57
|
||||
|
||||
#MEASURE 5/4
|
||||
#GOGOSTART
|
||||
10201020101220101202,
|
||||
#MEASURE 4/4
|
||||
1020102210102210,
|
||||
#MEASURE 3/4
|
||||
201012201022,
|
||||
#MEASURE 5/4
|
||||
10221020101220101202,
|
||||
10201022101022101202,
|
||||
#MEASURE 3/4
|
||||
100100111011,
|
||||
#MEASURE 5/4
|
||||
10201020101220101202,
|
||||
#MEASURE 4/4
|
||||
1020102210102210,
|
||||
#MEASURE 3/4
|
||||
201012201022,
|
||||
#MEASURE 5/4
|
||||
10201020101220101202,
|
||||
10201022101022101202,
|
||||
#MEASURE 3/4
|
||||
100100111011,//69
|
||||
|
||||
#GOGOEND
|
||||
#MEASURE 4/4
|
||||
10001101,
|
||||
#MEASURE 3/4
|
||||
101110111000,
|
||||
#MEASURE 4/4
|
||||
10101111,
|
||||
1011101010101010,
|
||||
#MEASURE 3/4
|
||||
101110101000,
|
||||
101011101000,
|
||||
#MEASURE 4/4
|
||||
1010111010303000,
|
||||
11111111,
|
||||
1121211111212111,
|
||||
1,
|
||||
#SCROLL 0.8
|
||||
#MEASURE 6/4
|
||||
1,
|
||||
#SCROLL 0.7
|
||||
#MEASURE 4/4
|
||||
1,
|
||||
#MEASURE 3/4
|
||||
,
|
||||
#SCROLL 0.6
|
||||
#MEASURE 4/4
|
||||
1,
|
||||
,
|
||||
#SCROLL 0.5
|
||||
#MEASURE 5/4
|
||||
01000,
|
||||
#MEASURE 4/4
|
||||
,
|
||||
,
|
||||
#SCROLL 0.6
|
||||
1111,
|
||||
#SCROLL 0.7
|
||||
1111,
|
||||
#SCROLL 0.8
|
||||
11111111,
|
||||
#SCROLL 0.9
|
||||
2121211121212111,
|
||||
2121211040000000,//92
|
||||
|
||||
#SCROLL 1
|
||||
#MEASURE 5/4
|
||||
#GOGOSTART
|
||||
10201020101220101202,
|
||||
#MEASURE 4/4
|
||||
1020102210102210,
|
||||
#MEASURE 3/4
|
||||
201012201022,
|
||||
#MEASURE 5/4
|
||||
10221020101220101202,
|
||||
10201022101022101202,
|
||||
#MEASURE 3/4
|
||||
100100111011,
|
||||
#MEASURE 5/4
|
||||
10201020101220101202,
|
||||
#MEASURE 4/4
|
||||
1020102210102210,
|
||||
#MEASURE 3/4
|
||||
201012201022,
|
||||
#MEASURE 5/4
|
||||
10201020101220101202,
|
||||
10201022101022101020,
|
||||
#MEASURE 3/4
|
||||
122122111211,
|
||||
#MEASURE 5/4
|
||||
10111010101220111011,
|
||||
#MEASURE 4/4
|
||||
1110122011012011,
|
||||
#MEASURE 3/4
|
||||
101110002111,
|
||||
#MEASURE 5/4
|
||||
11210111112120111211,
|
||||
10111210111210101010,
|
||||
#MEASURE 3/4
|
||||
122012201220,//110
|
||||
|
||||
#GOGOEND
|
||||
#SCROLL 4
|
||||
#MEASURE 4/4
|
||||
30003303,
|
||||
#SCROLL 6
|
||||
#MEASURE 3/4
|
||||
101010111000,
|
||||
#SCROLL 8
|
||||
#MEASURE 4/4
|
||||
3,
|
||||
|
||||
|
||||
#END
|
||||
|
||||
|
||||
COURSE:Hard
|
||||
LEVEL:8
|
||||
SCOREINIT:430
|
||||
SCOREDIFF:110
|
||||
|
||||
#START
|
||||
2,
|
||||
21,
|
||||
2,
|
||||
21,
|
||||
2,
|
||||
21,
|
||||
2,
|
||||
21,
|
||||
1,
|
||||
1,
|
||||
11,
|
||||
11,
|
||||
1111,
|
||||
1111,
|
||||
11111111,
|
||||
1010101011101110,
|
||||
30003303,
|
||||
#MEASURE 3/4
|
||||
101010111000,
|
||||
#MEASURE 4/4
|
||||
10101111,
|
||||
11111111,
|
||||
#MEASURE 3/4
|
||||
101011101000,
|
||||
101011101000,
|
||||
#MEASURE 4/4
|
||||
1011101011101000,
|
||||
1010101010101010,
|
||||
1110111011103000,
|
||||
1020102010201020,
|
||||
#MEASURE 3/4
|
||||
102010203000,
|
||||
#MEASURE 4/4
|
||||
5,
|
||||
000000000008000000000000200000200200200000000000,
|
||||
12121212,
|
||||
#MEASURE 3/4
|
||||
121230,
|
||||
#MEASURE 4/4
|
||||
5,
|
||||
#MEASURE 5/4
|
||||
000000000000000008000000200000200200200000200000100000000000,
|
||||
#MEASURE 4/4
|
||||
12121212,
|
||||
#MEASURE 3/4
|
||||
102010203000,
|
||||
#MEASURE 4/4
|
||||
5,
|
||||
000000000008000000000000200000200200200000000000,
|
||||
1020102010201020,
|
||||
#MEASURE 3/4
|
||||
102010203000,
|
||||
#MEASURE 4/4
|
||||
5,
|
||||
#MEASURE 5/4
|
||||
000000000000000008000000200000200200200000200000100000000000,
|
||||
#MEASURE 4/4
|
||||
12020202,
|
||||
12020202,
|
||||
12020202,
|
||||
12022000,
|
||||
12020202,
|
||||
12020202,
|
||||
12020202,
|
||||
#MEASURE 3/4
|
||||
102000222000,
|
||||
#MEASURE 4/4
|
||||
12020212,
|
||||
#MEASURE 3/4
|
||||
020102,
|
||||
#MEASURE 4/4
|
||||
12020212,
|
||||
02021000,
|
||||
12020212,
|
||||
#MEASURE 3/4
|
||||
020102,
|
||||
#MEASURE 4/4
|
||||
12020212,
|
||||
#MEASURE 3/4
|
||||
002000201110,//57
|
||||
|
||||
#GOGOSTART
|
||||
#MEASURE 5/4
|
||||
1212110110,
|
||||
#MEASURE 4/4
|
||||
12121101,
|
||||
#MEASURE 3/4
|
||||
011012,
|
||||
#MEASURE 5/4
|
||||
1212110110,
|
||||
1212110110,
|
||||
#MEASURE 3/4
|
||||
111000111000,
|
||||
#MEASURE 5/4
|
||||
1212110110,
|
||||
#MEASURE 4/4
|
||||
12121101,
|
||||
#MEASURE 3/4
|
||||
011012,
|
||||
#MEASURE 5/4
|
||||
1212110110,
|
||||
1212110110,
|
||||
#MEASURE 3/4
|
||||
111000111000,//69
|
||||
|
||||
#GOGOEND
|
||||
#MEASURE 4/4
|
||||
30003303,
|
||||
#MEASURE 3/4
|
||||
101110111000,
|
||||
#MEASURE 4/4
|
||||
10101111,
|
||||
1011101010101010,
|
||||
#MEASURE 3/4
|
||||
101110101000,
|
||||
101011101000,
|
||||
#MEASURE 4/4
|
||||
1010111010303000,
|
||||
1010101010101010,
|
||||
1010101011101110,
|
||||
1,
|
||||
#SCROLL 0.8
|
||||
#MEASURE 6/4
|
||||
1,
|
||||
#SCROLL 0.7
|
||||
#MEASURE 4/4
|
||||
1,
|
||||
#MEASURE 3/4
|
||||
,
|
||||
#SCROLL 0.6
|
||||
#MEASURE 4/4
|
||||
1,
|
||||
,
|
||||
#SCROLL 0.5
|
||||
#MEASURE 5/4
|
||||
01000,
|
||||
#MEASURE 4/4
|
||||
,
|
||||
,
|
||||
#SCROLL 0.6
|
||||
1111,
|
||||
#SCROLL 0.7
|
||||
1111,
|
||||
#SCROLL 0.8
|
||||
11111111,
|
||||
#SCROLL 0.9
|
||||
11111111,
|
||||
1110111030000000,//92
|
||||
|
||||
#GOGOSTART
|
||||
#SCROLL 1
|
||||
#MEASURE 5/4
|
||||
10201020101110101000,
|
||||
#MEASURE 4/4
|
||||
12121121,
|
||||
#MEASURE 3/4
|
||||
201011101000,
|
||||
#MEASURE 5/4
|
||||
10201020101110101000,
|
||||
10201020101022201000,
|
||||
#MEASURE 3/4
|
||||
111000111000,
|
||||
#MEASURE 5/4
|
||||
10201020101110101000,
|
||||
#MEASURE 4/4
|
||||
12121121,
|
||||
#MEASURE 3/4
|
||||
201011101000,
|
||||
#MEASURE 5/4
|
||||
10201020102220101000,
|
||||
10201020101022201000,
|
||||
#MEASURE 3/4
|
||||
111000111000,
|
||||
#MEASURE 5/4
|
||||
10111010102220101000,
|
||||
#MEASURE 4/4
|
||||
1011101010222010,
|
||||
#MEASURE 3/4
|
||||
101110201000,
|
||||
#MEASURE 5/4
|
||||
11101110222011101110,
|
||||
11102220111011101110,
|
||||
#MEASURE 3/4
|
||||
222011101110,//110
|
||||
|
||||
#GOGOEND
|
||||
#MEASURE 4/4
|
||||
3000000030300030,
|
||||
#MEASURE 3/4
|
||||
101010111000,
|
||||
#MEASURE 4/4
|
||||
3,
|
||||
,
|
||||
,
|
||||
#END
|
||||
|
||||
COURSE:Normal
|
||||
LEVEL:7
|
||||
SCOREINIT:640
|
||||
SCOREDIFF:188
|
||||
|
||||
#START
|
||||
2,
|
||||
2,
|
||||
2,
|
||||
2,
|
||||
2,
|
||||
2,
|
||||
2,
|
||||
2,
|
||||
1,
|
||||
1,
|
||||
1,
|
||||
1,
|
||||
11,
|
||||
11,
|
||||
1111,
|
||||
1110,
|
||||
30003303,
|
||||
#MEASURE 3/4
|
||||
333,
|
||||
#MEASURE 4/4
|
||||
1110,
|
||||
1110,
|
||||
#MEASURE 3/4
|
||||
101110,
|
||||
101110,
|
||||
#MEASURE 4/4
|
||||
10111010,
|
||||
11,
|
||||
500000000000000000000000000000000008000000000000,
|
||||
1111,
|
||||
#MEASURE 3/4
|
||||
113,
|
||||
#MEASURE 4/4
|
||||
5,
|
||||
000000000008000000000000200000000000200000000000,
|
||||
1111,
|
||||
#MEASURE 3/4
|
||||
113,
|
||||
#MEASURE 4/4
|
||||
5,
|
||||
#MEASURE 5/4
|
||||
000000000000000000000008000000000000200000000000200000000000,
|
||||
#MEASURE 4/4
|
||||
1111,
|
||||
#MEASURE 3/4
|
||||
113,
|
||||
#MEASURE 4/4
|
||||
5,
|
||||
000000000008000000000000200000000000200000000000,
|
||||
1111,
|
||||
#MEASURE 3/4
|
||||
113,
|
||||
#MEASURE 4/4
|
||||
5,
|
||||
#MEASURE 5/4
|
||||
000000000000000000000008000000000000200000000000200000000000,
|
||||
#MEASURE 4/4
|
||||
10020200,
|
||||
10020200,
|
||||
10020200,
|
||||
1,
|
||||
10020200,
|
||||
10020200,
|
||||
10020200,
|
||||
#MEASURE 3/4
|
||||
1,
|
||||
#MEASURE 4/4
|
||||
1201,
|
||||
#MEASURE 3/4
|
||||
002100,
|
||||
#MEASURE 4/4
|
||||
1021,
|
||||
01,
|
||||
1021,
|
||||
#MEASURE 3/4
|
||||
000120,
|
||||
#MEASURE 4/4
|
||||
1001,
|
||||
#MEASURE 3/4
|
||||
001,//57
|
||||
|
||||
#MEASURE 5/4
|
||||
#GOGOSTART
|
||||
1010110110,
|
||||
#MEASURE 4/4
|
||||
10101101,
|
||||
#MEASURE 3/4
|
||||
011000,
|
||||
#MEASURE 5/4
|
||||
1010110110,
|
||||
1010110110,
|
||||
#MEASURE 3/4
|
||||
3,
|
||||
#MEASURE 5/4
|
||||
1010110110,
|
||||
#MEASURE 4/4
|
||||
10101101,
|
||||
#MEASURE 3/4
|
||||
011000,
|
||||
#MEASURE 5/4
|
||||
1010110110,
|
||||
1010110110,
|
||||
#MEASURE 3/4
|
||||
3,//69
|
||||
|
||||
#GOGOEND
|
||||
#MEASURE 4/4
|
||||
30003303,
|
||||
#MEASURE 3/4
|
||||
333,
|
||||
#MEASURE 4/4
|
||||
1110,
|
||||
1110,
|
||||
#MEASURE 3/4
|
||||
101110,
|
||||
101110,
|
||||
#MEASURE 4/4
|
||||
10111000,
|
||||
|
||||
1111,
|
||||
500000000000000000000000000000000008000000000000,
|
||||
1,
|
||||
#SCROLL 0.8
|
||||
#MEASURE 6/4
|
||||
1,
|
||||
#SCROLL 0.7
|
||||
#MEASURE 4/4
|
||||
1,
|
||||
#MEASURE 3/4
|
||||
,
|
||||
#SCROLL 0.6
|
||||
#MEASURE 4/4
|
||||
1,
|
||||
,
|
||||
#SCROLL 0.5
|
||||
#MEASURE 5/4
|
||||
01000,
|
||||
#MEASURE 4/4
|
||||
,
|
||||
,
|
||||
#SCROLL 0.6
|
||||
1,
|
||||
#SCROLL 0.7
|
||||
1,
|
||||
#SCROLL 0.8
|
||||
11,
|
||||
#SCROLL 0.9
|
||||
11,
|
||||
1130,//92
|
||||
|
||||
#SCROLL 1
|
||||
#MEASURE 5/4
|
||||
#GOGOSTART
|
||||
1010110110,
|
||||
#MEASURE 4/4
|
||||
10101101,
|
||||
#MEASURE 3/4
|
||||
011000,
|
||||
#MEASURE 5/4
|
||||
1010110110,
|
||||
1010110110,
|
||||
#MEASURE 3/4
|
||||
3,
|
||||
#MEASURE 5/4
|
||||
1010110110,
|
||||
#MEASURE 4/4
|
||||
10101101,
|
||||
#MEASURE 3/4
|
||||
011000,
|
||||
#MEASURE 5/4
|
||||
1010110110,
|
||||
1010110110,
|
||||
#MEASURE 3/4
|
||||
3,
|
||||
#MEASURE 5/4
|
||||
1010110110,
|
||||
#MEASURE 4/4
|
||||
10101101,
|
||||
#MEASURE 3/4
|
||||
011000,
|
||||
#MEASURE 5/4
|
||||
1010110110,
|
||||
1010110101,
|
||||
#MEASURE 3/4
|
||||
1,//110
|
||||
|
||||
#GOGOEND
|
||||
#MEASURE 4/4
|
||||
30003303,
|
||||
#MEASURE 3/4
|
||||
311,
|
||||
#MEASURE 4/4
|
||||
3,
|
||||
,
|
||||
,
|
||||
#END
|
||||
|
||||
COURSE:Easy
|
||||
LEVEL:5
|
||||
SCOREINIT:470
|
||||
SCOREDIFF:150
|
||||
|
||||
#START
|
||||
2,
|
||||
2,
|
||||
2,
|
||||
2,
|
||||
2,
|
||||
2,
|
||||
2,
|
||||
2,
|
||||
1,
|
||||
1,
|
||||
1,
|
||||
1,
|
||||
1,
|
||||
1,
|
||||
11,
|
||||
11,
|
||||
33,
|
||||
#MEASURE 3/4
|
||||
333,
|
||||
#MEASURE 4/4
|
||||
11,
|
||||
11,
|
||||
#MEASURE 3/4
|
||||
111,
|
||||
111,
|
||||
#MEASURE 4/4
|
||||
1111,
|
||||
,
|
||||
500000000000000000000000000000000008000000000000,
|
||||
11,
|
||||
#MEASURE 3/4
|
||||
111,
|
||||
#MEASURE 4/4
|
||||
5,
|
||||
000000000008000000000000000000000000000000000000,
|
||||
11,
|
||||
#MEASURE 3/4
|
||||
111,
|
||||
#MEASURE 4/4
|
||||
5,
|
||||
#MEASURE 5/4
|
||||
000000000000000000000008000000000000000000000000000000000000,
|
||||
#MEASURE 4/4
|
||||
22,
|
||||
#MEASURE 3/4
|
||||
111,
|
||||
#MEASURE 4/4
|
||||
5,
|
||||
000000000008000000000000000000000000000000000000,
|
||||
22,
|
||||
#MEASURE 3/4
|
||||
111,
|
||||
#MEASURE 4/4
|
||||
5,
|
||||
#MEASURE 5/4
|
||||
000000000000000000000008000000000000000000000000000000000000,
|
||||
#MEASURE 4/4
|
||||
1,
|
||||
1,
|
||||
1,
|
||||
1,
|
||||
10020000,
|
||||
10020000,
|
||||
10020000,
|
||||
#MEASURE 3/4
|
||||
1,
|
||||
#MEASURE 4/4
|
||||
1001,
|
||||
#MEASURE 3/4
|
||||
01,
|
||||
#MEASURE 4/4
|
||||
1001,
|
||||
01,
|
||||
1001,
|
||||
#MEASURE 3/4
|
||||
01,
|
||||
#MEASURE 4/4
|
||||
1001,
|
||||
#MEASURE 3/4
|
||||
,//57
|
||||
|
||||
#MEASURE 5/4
|
||||
#GOGOSTART
|
||||
1010110100,
|
||||
#MEASURE 4/4
|
||||
10101101,
|
||||
#MEASURE 3/4
|
||||
,
|
||||
#MEASURE 5/4
|
||||
1010110100,
|
||||
1010110100,
|
||||
#MEASURE 3/4
|
||||
3,
|
||||
#MEASURE 5/4
|
||||
1010110100,
|
||||
#MEASURE 4/4
|
||||
10101101,
|
||||
#MEASURE 3/4
|
||||
,
|
||||
#MEASURE 5/4
|
||||
1010110100,
|
||||
1010110100,
|
||||
#MEASURE 3/4
|
||||
4,//69
|
||||
|
||||
#GOGOEND
|
||||
#MEASURE 4/4
|
||||
33,
|
||||
#MEASURE 3/4
|
||||
333,
|
||||
#MEASURE 4/4
|
||||
1110,
|
||||
1110,
|
||||
#MEASURE 3/4
|
||||
111,
|
||||
111,
|
||||
#MEASURE 4/4
|
||||
1110,
|
||||
11,
|
||||
500000000000000000000000000000000008000000000000,
|
||||
#MEASURE 4/4
|
||||
1,
|
||||
#SCROLL 0.8
|
||||
#MEASURE 6/4
|
||||
1,
|
||||
#SCROLL 0.7
|
||||
#MEASURE 4/4
|
||||
1,
|
||||
#MEASURE 3/4
|
||||
,
|
||||
#SCROLL 0.6
|
||||
#MEASURE 4/4
|
||||
1,
|
||||
,
|
||||
#SCROLL 0.5
|
||||
#MEASURE 5/4
|
||||
01000,
|
||||
#MEASURE 4/4
|
||||
,
|
||||
,
|
||||
#SCROLL 0.6
|
||||
1,
|
||||
#SCROLL 0.7
|
||||
1,
|
||||
#SCROLL 0.8
|
||||
1,
|
||||
#SCROLL 0.9
|
||||
1,
|
||||
13,//92
|
||||
|
||||
#SCROLL 1
|
||||
#MEASURE 5/4
|
||||
#GOGOSTART
|
||||
1010110100,
|
||||
#MEASURE 4/4
|
||||
10101101,
|
||||
#MEASURE 3/4
|
||||
,
|
||||
#MEASURE 5/4
|
||||
1010110100,
|
||||
1010110100,
|
||||
#MEASURE 3/4
|
||||
3,
|
||||
#MEASURE 5/4
|
||||
1010110100,
|
||||
#MEASURE 4/4
|
||||
10101101,
|
||||
#MEASURE 3/4
|
||||
,
|
||||
#MEASURE 5/4
|
||||
1010110100,
|
||||
1010110100,
|
||||
#MEASURE 3/4
|
||||
4,
|
||||
#MEASURE 5/4
|
||||
1010110100,
|
||||
#MEASURE 4/4
|
||||
10101101,
|
||||
#MEASURE 3/4
|
||||
,
|
||||
#MEASURE 5/4
|
||||
1010110100,
|
||||
1010110100,
|
||||
#MEASURE 3/4
|
||||
,//110
|
||||
|
||||
#GOGOEND
|
||||
#MEASURE 4/4
|
||||
33,
|
||||
#MEASURE 3/4
|
||||
111,
|
||||
#MEASURE 4/4
|
||||
3,
|
||||
,
|
||||
,
|
||||
#END
|
||||
Reference in New Issue
Block a user