This commit is contained in:
2026-03-04 23:59:27 +09:00
parent 6e0312f5b4
commit 4b4e2b8c98
1128 changed files with 668765 additions and 0 deletions

722
tja/339.tja Normal file
View File

@@ -0,0 +1,722 @@
//TJADB Project
TITLE:Jump Up, Super Star! -Short Version-
TITLEJA:Jump Up, Super Star! Short Version
SUBTITLE:--Naoto Kubo feat. Kate Davis/Super Mario Odyssey
SUBTITLEJA:「スーパーマリオ オデッセイ」より
BPM:200.98
WAVE:Jump Up, Super Star! -Short Version-.ogg
OFFSET:-1.825
DEMOSTART:42.153
COURSE:Oni
LEVEL:8
BALLOON:20,2,11,20
SCOREINIT:660
SCOREDIFF:173
#START
#SCROLL 1.01
1212,
#BPMCHANGE 207.87
#SCROLL 0.98
100200101200,
#BPMCHANGE 200.87
#SCROLL 1.01
1212,
#BPMCHANGE 203.85
#SCROLL 1
100200102200,
1212,
#BPMCHANGE 208.52
#SCROLL 0.97
100200302204,
#BPMCHANGE 201.79
#SCROLL 1.01
03003027,
#BPMCHANGE 202.14
#SCROLL 1
0,
#BPMCHANGE 202.67
000008001101,
#BPMCHANGE 202.5
000004001101,
000004001101,
#BPMCHANGE 208.45
#SCROLL 0.97
0212,
#BPMCHANGE 203.67
#SCROLL 1
101002002000,
100200101201,
#BPMCHANGE 204.05
#SCROLL 0.99
000200101201,
#BPMCHANGE 204.61
004001104001,
#BPMCHANGE 202.67
#SCROLL 1
104001102101,
#BPMCHANGE 205.35
#SCROLL 0.99
000004001101,
#BPMCHANGE 209.57
#SCROLL 0.97
000004004004,
#BPMCHANGE 199.77
#SCROLL 1.02
0212,
#BPMCHANGE 202.2
#SCROLL 1
101002002202,
#BPMCHANGE 205.94
#SCROLL 0.98
100200101201,
#BPMCHANGE 202.79
#SCROLL 1
000200101205,
#BPMCHANGE 204
#SCROLL 0.99
000000000000000000000000000000000008000000000000,
001000200200,
302203002203,
0402,
100200102001,
#BPMCHANGE 202.89
#SCROLL 1
200102001100,
#BARLINEOFF
#BPMCHANGE 202.2
00000780,
#BPMCHANGE 206.98
#SCROLL 0.98
0000000000680000,
#BARLINEON
#BPMCHANGE 206.7
301104002203,
001104002222,
#BPMCHANGE 198.8
#SCROLL 1.02
033333,
#BPMCHANGE 205.08
#SCROLL 0.99
400200202003,
#GOGOSTART
#BPMCHANGE 202.93
#SCROLL 1
000200101201,
#BPMCHANGE 204
#SCROLL 0.99
000200102201,
000200101201,
000200102201,
000200101201,
000200102003,
#BPMCHANGE 207.15
#SCROLL 0.98
004003004003,
#BPMCHANGE 204.68
#SCROLL 0.99
002100204003,
#BPMCHANGE 203.43
#SCROLL 1
000200101201,
#BPMCHANGE 201.58
#SCROLL 1.01
000200102202,
#BPMCHANGE 203.23
#SCROLL 1
1122,
#BPMCHANGE 204
#SCROLL 0.99
300104001200,
#BPMCHANGE 203.45
#SCROLL 1
300201001200,
3232,
#BPMCHANGE 205.1
#SCROLL 0.99
7,
#BPMCHANGE 204
800100204003,
001200101201,
002200102201,
001200101201,
002200102201,
001200101201,
000400002200,
300201002201,
002100204003,
001200101201,
002200102202,
1122,
300104001200,
100200102201,
000200101200,
100200102201,
000000000000500000000000000000000008000000000000,
101200100200,
#BPMCHANGE 207.13
#SCROLL 0.98
300111201104,
#BPMCHANGE 200.96
#SCROLL 1.01
03003023,
#BPMCHANGE 200.19
000020200600000000000000,
#BPMCHANGE 209.83
#SCROLL 0.97
000000000000000000080000,
#GOGOEND
#BPMCHANGE 202.23
#SCROLL 1
10010121,
#BPMCHANGE 204
#SCROLL 0.99
10010121,
10210211,
0202,
10010121,
10010121,
10210112,
#BPMCHANGE 207.09
#SCROLL 0.98
0202,
#GOGOSTART
#BPMCHANGE 201
#SCROLL 1.01
30210121,
#BPMCHANGE 203
#SCROLL 1
10210121,
#BPMCHANGE 204.17
#SCROLL 0.99
10210212,
#BPMCHANGE 203.32
#SCROLL 1
000200000000200010100020,
#BPMCHANGE 205.03
#SCROLL 0.99
10210121,
#BPMCHANGE 204.17
10210330,
3000000040040030,
#BPMCHANGE 202.87
#SCROLL 1
000111202000,
#GOGOEND
#BPMCHANGE 200.78
#SCROLL 1.01
30040030,
#BPMCHANGE 204.26
#SCROLL 0.99
04003040,
#BPMCHANGE 208.95
#SCROLL 0.97
300001101001,
#BPMCHANGE 198.59
#SCROLL 1.02
001100000000,
#BPMCHANGE 200.35
#SCROLL 1.01
7,
0000000080000221,
1,
#END
COURSE:Hard
LEVEL:5
BALLOON:22,4,11,2,15,8,8,30
SCOREINIT:
SCOREDIFF:
#START
#BPMCHANGE 204
1010,
#BPMCHANGE 207.87
1,
#BPMCHANGE 200.87
2020,
#BPMCHANGE 203.85
2,
1010,
#BPMCHANGE 208.52
1033,
#BPMCHANGE 201.79
09000000,
#BPMCHANGE 202.14
0,
#BPMCHANGE 202.67
0080,
#BPMCHANGE 202.5
000003000000,
000003000000,
#BPMCHANGE 208.45
0111,
#BPMCHANGE 203.67
200002000000,
0110,
#BPMCHANGE 204.05
000100100005,
#BPMCHANGE 204.61
0,
#BPMCHANGE 202.67
8,
#BPMCHANGE 205.35
000003000000,
#BPMCHANGE 209.57
000007000008,
#BPMCHANGE 199.77
0111,
#BPMCHANGE 202.2
200002000000,
#BPMCHANGE 205.94
1110,
#BPMCHANGE 202.79
000100100005,
#BPMCHANGE 204
0,
8,
7,
0800,
0100,
#BPMCHANGE 202.89
200002000000,
#BPMCHANGE 202.2
0000000000780000,
#BPMCHANGE 206.98
0000000000680000,
#BPMCHANGE 206.7
9,
,
#BPMCHANGE 198.8
8,
#BPMCHANGE 205.08
400000000001,
#GOGOSTART
#BPMCHANGE 202.93
000100100002,
#BPMCHANGE 204
000000000001,
000100100002,
000000000001,
000100100002,
000100100005,
#BPMCHANGE 207.15
0,
#BPMCHANGE 204.68
800000000001,
#BPMCHANGE 203.43
000100100002,
#BPMCHANGE 201.58
0,
#BPMCHANGE 203.23
1111,
#BPMCHANGE 204
200002000000,
#BPMCHANGE 203.45
300003000300,
3040,
#BPMCHANGE 205.1
6,
#BPMCHANGE 204
800000000001,
000100100002,
000000000001,
000100100002,
000000000001,
000100100002,
0202,
5,
800000000001,
000100100002,
,
1111,
200002000000,
100100007000,
0008,
100100007000,
0008,
3303,
#BPMCHANGE 207.13
40004006,
#BPMCHANGE 200.96
0,
#BPMCHANGE 200.19
0,
#BPMCHANGE 209.83
8,
#GOGOEND
#BPMCHANGE 202.23
01101000,
#BPMCHANGE 204
1100,
01101000,
2200,
01101000,
1100,
01101000,
#BPMCHANGE 207.09
2200,
#GOGOSTART
#BPMCHANGE 201
01101000,
#BPMCHANGE 203
1100,
#BPMCHANGE 204.17
01101000,
#BPMCHANGE 203.32
2200,
#BPMCHANGE 205.03
03303000,
#BPMCHANGE 204.17
40400330,
300446,
#BPMCHANGE 202.87
00080000,
#GOGOEND
#BPMCHANGE 200.78
9,
#BPMCHANGE 204.26
0,
#BPMCHANGE 208.95
0,
#BPMCHANGE 198.59
0800,
#BPMCHANGE 200.35
3,
,
,
,
#END
COURSE:Normal
LEVEL:4
BALLOON:14,3,12,12,4,4,19
SCOREINIT:
SCOREDIFF:
#START
#BPMCHANGE 204
1010,
#BPMCHANGE 207.87
1,
#BPMCHANGE 200.87
1010,
#BPMCHANGE 203.85
1,
1010,
#BPMCHANGE 208.52
1033,
#BPMCHANGE 201.79
09000000,
#BPMCHANGE 202.14
0,
#BPMCHANGE 202.67
0080,
#BPMCHANGE 202.5
000003000000,
000003000000,
#BPMCHANGE 208.45
0010,
#BPMCHANGE 203.67
1,
0020,
#BPMCHANGE 204.05
000000200005,
#BPMCHANGE 204.61
0,
#BPMCHANGE 202.67
8,
#BPMCHANGE 205.35
000003000000,
#BPMCHANGE 209.57
000007000008,
#BPMCHANGE 199.77
0010,
#BPMCHANGE 202.2
1,
#BPMCHANGE 205.94
1020,
#BPMCHANGE 202.79
000000200005,
#BPMCHANGE 204
0,
8,
7,
0800,
,
#BPMCHANGE 202.89
1,
#BPMCHANGE 202.2
0003,
#BPMCHANGE 206.98
0000000000680000,
#BPMCHANGE 206.7
9,
,
#BPMCHANGE 198.8
8,
#BPMCHANGE 205.08
000000000001,
#GOGOSTART
#BPMCHANGE 202.93
000000100001,
#BPMCHANGE 204
000000000001,
000000100001,
000000000001,
000000100001,
000000100005,
#BPMCHANGE 207.15
0,
#BPMCHANGE 204.68
800000000001,
#BPMCHANGE 203.43
000000100001,
#BPMCHANGE 201.58
0,
#BPMCHANGE 203.23
1010,
#BPMCHANGE 204
2,
#BPMCHANGE 203.45
3,
3030,
#BPMCHANGE 205.1
6,
#BPMCHANGE 204
800000000001,
000000100001,
000000000001,
000000100001,
000000000001,
000000100001,
0300,
5,
800000000001,
000000100001,
,
1010,
2,
100070,
0008,
100070,
0008,
3,
#BPMCHANGE 207.13
30004006,
#BPMCHANGE 200.96
0,
#BPMCHANGE 200.19
000000000000000000000000000000000000000000000008,
#GOGOEND
#BPMCHANGE 209.83
1010,
#BPMCHANGE 202.23
1100,
#BPMCHANGE 204
1010,
1100,
2020,
2200,
2020,
2200,
#GOGOSTART
#BPMCHANGE 207.09
1010,
#BPMCHANGE 201
1100,
#BPMCHANGE 203
1010,
#BPMCHANGE 204.17
1010,
#BPMCHANGE 203.32
3030,
#BPMCHANGE 205.03
3303,
#BPMCHANGE 204.17
300406,
00080000,
#GOGOEND
#BPMCHANGE 202.87
9,
#BPMCHANGE 200.78
0,
#BPMCHANGE 204.26
0,
#BPMCHANGE 208.95
0800,
#BPMCHANGE 198.59
3,
#BPMCHANGE 200.35
0,
,
,
,
#END
COURSE:Easy
LEVEL:3
BALLOON:11,3,11,10,9,16
SCOREINIT:
SCOREDIFF:
#START
#BPMCHANGE 204
3,
#BPMCHANGE 207.87
0,
#BPMCHANGE 200.87
3,
#BPMCHANGE 203.85
0,
3,
#BPMCHANGE 208.52
0030,
#BPMCHANGE 201.79
09000000,
#BPMCHANGE 202.14
0,
#BPMCHANGE 202.67
0080,
#BPMCHANGE 202.5
000003000000,
000003000000,
#BPMCHANGE 208.45
0010,
#BPMCHANGE 203.67
1,
0010,
#BPMCHANGE 204.05
000000100005,
#BPMCHANGE 204.61
0,
#BPMCHANGE 202.67
8,
#BPMCHANGE 205.35
000003000000,
#BPMCHANGE 209.57
000007000008,
#BPMCHANGE 199.77
0010,
#BPMCHANGE 202.2
1,
#BPMCHANGE 205.94
1010,
#BPMCHANGE 202.79
000000100005,
#BPMCHANGE 204
0,
8,
7,
0800,
,
#BPMCHANGE 202.89
2,
#BPMCHANGE 202.2
0003,
#BPMCHANGE 206.98
000040,
#BPMCHANGE 206.7
9,
,
#BPMCHANGE 198.8
8,
#BPMCHANGE 205.08
000000000001,
#GOGOSTART
#BPMCHANGE 202.93
0010,
#BPMCHANGE 204
000000000001,
0010,
000000000001,
0010,
000000100005,
#BPMCHANGE 207.15
0,
#BPMCHANGE 204.68
800000000001,
#BPMCHANGE 203.43
0010,
#BPMCHANGE 201.58
0,
#BPMCHANGE 203.23
2020,
#BPMCHANGE 204
2,
#BPMCHANGE 203.45
3,
3030,
#BPMCHANGE 205.1
6,
#BPMCHANGE 204
800000000001,
0010,
000000000001,
0010,
000000000001,
0010,
0700,
,
800000000001,
0010,
,
2020,
2,
3,
,
3,
,
3,
#BPMCHANGE 207.13
30003006,
#BPMCHANGE 200.96
0,
#BPMCHANGE 200.19
0,
#BPMCHANGE 209.83
8,
#GOGOEND
#BPMCHANGE 202.23
1010,
#BPMCHANGE 204
1,
1010,
2,
1010,
1,
1010,
#BPMCHANGE 207.09
2,
#GOGOSTART
#BPMCHANGE 201
3030,
#BPMCHANGE 203
3,
#BPMCHANGE 204.17
3030,
#BPMCHANGE 203.32
4,
#BPMCHANGE 205.03
3030,
#BPMCHANGE 204.17
3003,
300406,
#BPMCHANGE 202.87
00080000,
#GOGOEND
#BPMCHANGE 200.78
9,
#BPMCHANGE 204.26
0,
#BPMCHANGE 208.95
0,
#BPMCHANGE 198.59
0800,
#BPMCHANGE 200.35
3,
,
,
,
#END