tja
This commit is contained in:
293
tja/34.tja
Normal file
293
tja/34.tja
Normal file
@@ -0,0 +1,293 @@
|
||||
//TJADB Project
|
||||
TITLE:Amanda
|
||||
TITLEJA:Amanda
|
||||
SUBTITLE:--bermei.inazawa
|
||||
BPM:123
|
||||
WAVE:Amanda.ogg
|
||||
OFFSET:-2.210
|
||||
DEMOSTART:64.631
|
||||
|
||||
COURSE:Oni
|
||||
LEVEL:8
|
||||
SCOREINIT:600
|
||||
SCOREDIFF:140
|
||||
|
||||
|
||||
#START
|
||||
|
||||
|
||||
3002022020002010,
|
||||
1102001020202000,
|
||||
3022200020220012,
|
||||
0220201220202200,
|
||||
3002022020002010,
|
||||
1102001020202000,
|
||||
3022200020220012,
|
||||
000200200000200000100200200000200000200020002000,
|
||||
1001201220220210,
|
||||
1001201012022000,
|
||||
1001201220220210,
|
||||
1001201012020200,
|
||||
1001201220220210,
|
||||
1001201012022000,
|
||||
1001201220220210,
|
||||
1002100210021200,
|
||||
1001201220221210,
|
||||
1001201012022010,
|
||||
1001201220221210,
|
||||
1001201012020210,
|
||||
1001201220221210,
|
||||
1001201010400400,
|
||||
1001201220221210,
|
||||
100000000200200000100000100020002000200020002000,
|
||||
100000000100200000000000000000000000100020002000,
|
||||
100000101010200000000000000000000000100200200100,
|
||||
1001200120000000,
|
||||
112221221100,
|
||||
111111111200102020200000,
|
||||
111111111200102020100000,
|
||||
100000000112200000000221,
|
||||
100000000112200000400000,//32
|
||||
|
||||
#GOGOSTART
|
||||
1021021010221202,
|
||||
1021020210221202,
|
||||
1021020210221202,
|
||||
1022012010221202,
|
||||
1021020210212020,
|
||||
1021020210221202,
|
||||
1021020210221202,
|
||||
1021020210221202,
|
||||
1021012012012012,
|
||||
1220120120120120,
|
||||
1201201212212012,
|
||||
1220120120120101,
|
||||
2021021021021021,
|
||||
2120210210121112,
|
||||
2010210210210122,
|
||||
1201202102101222,//48
|
||||
|
||||
#GOGOEND
|
||||
10000001,
|
||||
1001000000102100,
|
||||
1001001200000010,
|
||||
1021000222022201,
|
||||
1001002020000010,
|
||||
1001001120102222,
|
||||
100000000100000000200000200000000000000020001000,
|
||||
100000000100000000000200100000100000200020002000,
|
||||
1001021000000000,
|
||||
|
||||
|
||||
#END
|
||||
|
||||
|
||||
COURSE:Hard
|
||||
LEVEL:5
|
||||
BALLOON:25,10
|
||||
|
||||
#START
|
||||
3002002020000010,
|
||||
00012220,
|
||||
3002002020000010,
|
||||
00012000,
|
||||
3002002020000010,
|
||||
00012220,
|
||||
3002002020000010,
|
||||
00012000,
|
||||
1002200010010010,
|
||||
00110000,
|
||||
1002200010010010,
|
||||
0022,
|
||||
1002200010010010,
|
||||
00110000,
|
||||
1002200010022000,
|
||||
1002200220022000,
|
||||
1002200010010010,
|
||||
00211020,
|
||||
1002200010010010,
|
||||
00211020,
|
||||
1002200010010010,
|
||||
00211020,
|
||||
1002200010010010,
|
||||
00211000,
|
||||
500000000000000000000000000000000008000000000000,
|
||||
500000000000000000000000000000000008000000000000,
|
||||
1001200120000000,
|
||||
111100111100,
|
||||
500000000000000008000000100010001000100000000000,
|
||||
500000000000000008000000200020002000200000000000,
|
||||
7,
|
||||
0084,//32
|
||||
|
||||
#GOGOSTART
|
||||
1022022010001000,
|
||||
1022022010001000,
|
||||
1022022010001000,
|
||||
1022022010102000,
|
||||
1022022010001000,
|
||||
1022022010001000,
|
||||
1022022010001000,
|
||||
1022022010102000,
|
||||
1011011010222000,
|
||||
1011011010111000,
|
||||
1011011010222000,
|
||||
1011011010111000,
|
||||
2022022020222000,
|
||||
2022022010111000,
|
||||
2022022020222000,
|
||||
2022022010111000,//48
|
||||
|
||||
#GOGOEND
|
||||
30000001,
|
||||
,
|
||||
30000001,
|
||||
0000000220002000,
|
||||
1001000020000000,
|
||||
1001000020002000,
|
||||
1001000020000000,
|
||||
100000000100000000000000200000000000200020002000,
|
||||
78,
|
||||
,
|
||||
,
|
||||
#END
|
||||
|
||||
COURSE:Normal
|
||||
LEVEL:4
|
||||
BALLOON:9,12,6
|
||||
|
||||
#START
|
||||
32,
|
||||
0002,
|
||||
32,
|
||||
0002,
|
||||
32,
|
||||
0002,
|
||||
32,
|
||||
0002,
|
||||
1022,
|
||||
1011,
|
||||
1022,
|
||||
1011,
|
||||
1022,
|
||||
1011,
|
||||
1022,
|
||||
3330,
|
||||
1011,
|
||||
2022,
|
||||
1011,
|
||||
7008,
|
||||
1011,
|
||||
2022,
|
||||
1011,
|
||||
2022,
|
||||
500000000000000000000000000000000008000000000000,
|
||||
500000000000000000000000000000000008000000000000,
|
||||
1120,
|
||||
1220,
|
||||
500000000000000000000000000000000008000000000000,
|
||||
500000000000000000000000000000000008000000000000,
|
||||
900009,
|
||||
8,//32
|
||||
|
||||
#GOGOSTART
|
||||
10102220,
|
||||
1100,
|
||||
10101110,
|
||||
2200,
|
||||
10102220,
|
||||
1100,
|
||||
10101110,
|
||||
2200,
|
||||
10102220,
|
||||
11102220,
|
||||
11102220,
|
||||
11101010,
|
||||
20201110,
|
||||
22201110,
|
||||
22201110,
|
||||
22202020,//48
|
||||
|
||||
#GOGOEND
|
||||
3022,
|
||||
,
|
||||
1022,
|
||||
,
|
||||
12,
|
||||
1122,
|
||||
12,
|
||||
10102220,
|
||||
78,
|
||||
,
|
||||
,
|
||||
#END
|
||||
|
||||
COURSE:Easy
|
||||
LEVEL:3
|
||||
BALLOON:5,9,4
|
||||
|
||||
#START
|
||||
32,
|
||||
02,
|
||||
32,
|
||||
02,
|
||||
32,
|
||||
01,
|
||||
32,
|
||||
01,
|
||||
1022,
|
||||
0011,
|
||||
1022,
|
||||
0011,
|
||||
1022,
|
||||
0011,
|
||||
1022,
|
||||
3330,
|
||||
1022,
|
||||
0011,
|
||||
1022,
|
||||
7008,
|
||||
1022,
|
||||
0011,
|
||||
1022,
|
||||
0011,
|
||||
500000000000000000000000000008000000000000000000,
|
||||
500000000000000000000000000008000000000000000000,
|
||||
1110,
|
||||
1110,
|
||||
500000000000000000000000000008000000000000000000,
|
||||
500000000000000000000000000008000000000000000000,
|
||||
900009,
|
||||
8,//32
|
||||
|
||||
#GOGOSTART
|
||||
1110,
|
||||
1110,
|
||||
1110,
|
||||
2200,
|
||||
1110,
|
||||
1110,
|
||||
1110,
|
||||
2200,
|
||||
1120,
|
||||
1120,
|
||||
1122,
|
||||
1120,
|
||||
2210,
|
||||
2210,
|
||||
2211,
|
||||
2210,//48
|
||||
|
||||
#GOGOEND
|
||||
3022,
|
||||
,
|
||||
1022,
|
||||
,
|
||||
12,
|
||||
1120,
|
||||
12,
|
||||
1120,
|
||||
78,
|
||||
,
|
||||
,//121combo
|
||||
#END
|
||||
Reference in New Issue
Block a user